  0
SECTION
  2
HEADER
  9
$ACADVER
  1
AC1027
  9
$ACADMAINTVER
 70
     8
  9
$DWGCODEPAGE
  3
ANSI_932
  9
$REQUIREDVERSIONS
160
                 0
  9
$LASTSAVEDBY
  1
fujika.waniguchi
  9
$INSBASE
 10
0.0
 20
0.0
 30
0.0
  9
$EXTMIN
 10
-98.124081040964
 20
164.096143649624
 30
0.0
  9
$EXTMAX
 10
321.241120621153
 20
406.086943342896
 30
0.0
  9
$LIMMIN
 10
0.0
 20
0.0
  9
$LIMMAX
 10
594.0
 20
420.0
  9
$ORTHOMODE
 70
     0
  9
$REGENMODE
 70
     1
  9
$FILLMODE
 70
     1
  9
$QTEXTMODE
 70
     0
  9
$MIRRTEXT
 70
     1
  9
$LTSCALE
 40
5.0
  9
$ATTMODE
 70
     1
  9
$TEXTSIZE
 40
4.0
  9
$TRACEWID
 40
1.0
  9
$TEXTSTYLE
  7
EXTFONT
  9
$CLAYER
  8
6
  9
$CELTYPE
  6
BYLAYER
  9
$CECOLOR
 62
   256
  9
$CELTSCALE
 40
1.0
  9
$DISPSILH
 70
     0
  9
$DIMSCALE
 40
1.0
  9
$DIMASZ
 40
2.5
  9
$DIMEXO
 40
1.0
  9
$DIMDLI
 40
8.0
  9
$DIMRND
 40
0.0
  9
$DIMDLE
 40
0.0
  9
$DIMEXE
 40
2.0
  9
$DIMTP
 40
0.1
  9
$DIMTM
 40
0.1
  9
$DIMTXT
 40
4.0
  9
$DIMCEN
 40
2.0
  9
$DIMTSZ
 40
0.0
  9
$DIMTOL
 70
     0
  9
$DIMLIM
 70
     0
  9
$DIMTIH
 70
     0
  9
$DIMTOH
 70
     0
  9
$DIMSE1
 70
     0
  9
$DIMSE2
 70
     0
  9
$DIMTAD
 70
     1
  9
$DIMZIN
 70
     8
  9
$DIMBLK
  1
Open30
  9
$DIMASO
 70
     1
  9
$DIMSHO
 70
     1
  9
$DIMPOST
  1

  9
$DIMAPOST
  1

  9
$DIMALT
 70
     0
  9
$DIMALTD
 70
     2
  9
$DIMALTF
 40
25.4
  9
$DIMLFAC
 40
1.0
  9
$DIMTOFL
 70
     1
  9
$DIMTVP
 40
0.0
  9
$DIMTIX
 70
     0
  9
$DIMSOXD
 70
     0
  9
$DIMSAH
 70
     0
  9
$DIMBLK1
  1

  9
$DIMBLK2
  1

  9
$DIMSTYLE
  2
GEN-ISO
  9
$DIMCLRD
 70
     0
  9
$DIMCLRE
 70
     0
  9
$DIMCLRT
 70
     2
  9
$DIMTFAC
 40
0.7
  9
$DIMGAP
 40
1.0
  9
$DIMJUST
 70
     0
  9
$DIMSD1
 70
     0
  9
$DIMSD2
 70
     0
  9
$DIMTOLJ
 70
     1
  9
$DIMTZIN
 70
     8
  9
$DIMALTZ
 70
     8
  9
$DIMALTTZ
 70
     8
  9
$DIMUPT
 70
     0
  9
$DIMDEC
 70
     4
  9
$DIMTDEC
 70
     4
  9
$DIMALTU
 70
     2
  9
$DIMALTTD
 70
     2
  9
$DIMTXSTY
  7
EXTFONT
  9
$DIMAUNIT
 70
     0
  9
$DIMADEC
 70
     2
  9
$DIMALTRND
 40
0.0
  9
$DIMAZIN
 70
     2
  9
$DIMDSEP
 70
    46
  9
$DIMATFIT
 70
     3
  9
$DIMFRAC
 70
     0
  9
$DIMLDRBLK
  1
Open30
  9
$DIMLUNIT
 70
     2
  9
$DIMLWD
 70
    -2
  9
$DIMLWE
 70
    -2
  9
$DIMTMOVE
 70
     0
  9
$DIMFXL
 40
1.0
  9
$DIMFXLON
 70
     0
  9
$DIMJOGANG
 40
0.785398163397
  9
$DIMTFILL
 70
     0
  9
$DIMTFILLCLR
 70
     0
  9
$DIMARCSYM
 70
     0
  9
$DIMLTYPE
  6

  9
$DIMLTEX1
  6

  9
$DIMLTEX2
  6

  9
$DIMTXTDIRECTION
 70
     0
  9
$LUNITS
 70
     2
  9
$LUPREC
 70
     4
  9
$SKETCHINC
 40
1.0
  9
$FILLETRAD
 40
0.0
  9
$AUNITS
 70
     0
  9
$AUPREC
 70
     0
  9
$MENU
  1
acad
  9
$ELEVATION
 40
0.0
  9
$PELEVATION
 40
0.0
  9
$THICKNESS
 40
0.0
  9
$LIMCHECK
 70
     0
  9
$CHAMFERA
 40
10.0
  9
$CHAMFERB
 40
10.0
  9
$CHAMFERC
 40
0.0
  9
$CHAMFERD
 40
0.0
  9
$SKPOLY
 70
     0
  9
$TDCREATE
 40
2451631.484792153
  9
$TDUCREATE
 40
2451631.109792153
  9
$TDUPDATE
 40
2457875.598927176
  9
$TDUUPDATE
 40
2457875.223927176
  9
$TDINDWG
 40
0.993273912
  9
$TDUSRTIMER
 40
0.993273912
  9
$USRTIMER
 70
     1
  9
$ANGBASE
 50
0.0
  9
$ANGDIR
 70
     0
  9
$PDMODE
 70
     0
  9
$PDSIZE
 40
3.0
  9
$PLINEWID
 40
0.0
  9
$SPLFRAME
 70
     0
  9
$SPLINETYPE
 70
     6
  9
$SPLINESEGS
 70
     8
  9
$HANDSEED
  5
149C8
  9
$SURFTAB1
 70
     6
  9
$SURFTAB2
 70
     6
  9
$SURFTYPE
 70
     6
  9
$SURFU
 70
     6
  9
$SURFV
 70
     6
  9
$UCSBASE
  2

  9
$UCSNAME
  2

  9
$UCSORG
 10
0.0
 20
0.0
 30
0.0
  9
$UCSXDIR
 10
1.0
 20
0.0
 30
0.0
  9
$UCSYDIR
 10
0.0
 20
1.0
 30
0.0
  9
$UCSORTHOREF
  2

  9
$UCSORTHOVIEW
 70
     0
  9
$UCSORGTOP
 10
0.0
 20
0.0
 30
0.0
  9
$UCSORGBOTTOM
 10
0.0
 20
0.0
 30
0.0
  9
$UCSORGLEFT
 10
0.0
 20
0.0
 30
0.0
  9
$UCSORGRIGHT
 10
0.0
 20
0.0
 30
0.0
  9
$UCSORGFRONT
 10
0.0
 20
0.0
 30
0.0
  9
$UCSORGBACK
 10
0.0
 20
0.0
 30
0.0
  9
$PUCSBASE
  2

  9
$PUCSNAME
  2

  9
$PUCSORG
 10
0.0
 20
0.0
 30
0.0
  9
$PUCSXDIR
 10
1.0
 20
0.0
 30
0.0
  9
$PUCSYDIR
 10
0.0
 20
1.0
 30
0.0
  9
$PUCSORTHOREF
  2

  9
$PUCSORTHOVIEW
 70
     0
  9
$PUCSORGTOP
 10
0.0
 20
0.0
 30
0.0
  9
$PUCSORGBOTTOM
 10
0.0
 20
0.0
 30
0.0
  9
$PUCSORGLEFT
 10
0.0
 20
0.0
 30
0.0
  9
$PUCSORGRIGHT
 10
0.0
 20
0.0
 30
0.0
  9
$PUCSORGFRONT
 10
0.0
 20
0.0
 30
0.0
  9
$PUCSORGBACK
 10
0.0
 20
0.0
 30
0.0
  9
$USERI1
 70
     0
  9
$USERI2
 70
     0
  9
$USERI3
 70
     0
  9
$USERI4
 70
     0
  9
$USERI5
 70
     0
  9
$USERR1
 40
0.0
  9
$USERR2
 40
0.0
  9
$USERR3
 40
0.0
  9
$USERR4
 40
0.0
  9
$USERR5
 40
0.0
  9
$WORLDVIEW
 70
     1
  9
$SHADEDGE
 70
     3
  9
$SHADEDIF
 70
    70
  9
$TILEMODE
 70
     1
  9
$MAXACTVP
 70
    16
  9
$PINSBASE
 10
0.0
 20
0.0
 30
0.0
  9
$PLIMCHECK
 70
     0
  9
$PEXTMIN
 10
41.365001225471
 20
29.065001225472
 30
0.0
  9
$PEXTMAX
 10
372.285011029243
 20
261.585011029243
 30
0.0
  9
$PLIMMIN
 10
-3.174987792969
 20
-3.174999952316
  9
$PLIMMAX
 10
416.825012207031
 20
293.825000047684
  9
$UNITMODE
 70
     0
  9
$VISRETAIN
 70
     0
  9
$PLINEGEN
 70
     0
  9
$PSLTSCALE
 70
     1
  9
$TREEDEPTH
 70
  3020
  9
$CMLSTYLE
  2
STANDARD
  9
$CMLJUST
 70
     0
  9
$CMLSCALE
 40
1.0
  9
$PROXYGRAPHICS
 70
     1
  9
$MEASUREMENT
 70
     1
  9
$CELWEIGHT
370
    -1
  9
$ENDCAPS
280
     0
  9
$JOINSTYLE
280
     0
  9
$LWDISPLAY
290
     0
  9
$INSUNITS
 70
     0
  9
$HYPERLINKBASE
  1

  9
$STYLESHEET
  1
monochrome.ctb
  9
$XEDIT
290
     1
  9
$CEPSNTYPE
380
     0
  9
$PSTYLEMODE
290
     1
  9
$FINGERPRINTGUID
  2
{DA944401-A675-4B3D-BEF8-CF4CC698C0CC}
  9
$VERSIONGUID
  2
{B3EEA5BB-3F8E-48BA-8AF6-A2786EB3B329}
  9
$EXTNAMES
290
     1
  9
$PSVPSCALE
 40
0.0
  9
$OLESTARTUP
290
     0
  9
$SORTENTS
280
     1
  9
$INDEXCTL
280
     0
  9
$HIDETEXT
280
     1
  9
$XCLIPFRAME
280
     2
  9
$HALOGAP
280
     0
  9
$OBSCOLOR
 70
   257
  9
$OBSLTYPE
280
     0
  9
$INTERSECTIONDISPLAY
280
     0
  9
$INTERSECTIONCOLOR
 70
   257
  9
$DIMASSOC
280
     2
  9
$PROJECTNAME
  1

  9
$CAMERADISPLAY
290
     0
  9
$LENSLENGTH
 40
50.0
  9
$CAMERAHEIGHT
 40
0.0
  9
$STEPSPERSEC
 40
2.0
  9
$STEPSIZE
 40
6.0
  9
$3DDWFPREC
 40
2.0
  9
$PSOLWIDTH
 40
0.25
  9
$PSOLHEIGHT
 40
4.0
  9
$LOFTANG1
 40
1.570796326795
  9
$LOFTANG2
 40
1.570796326795
  9
$LOFTMAG1
 40
0.0
  9
$LOFTMAG2
 40
0.0
  9
$LOFTPARAM
 70
     7
  9
$LOFTNORMALS
280
     1
  9
$LATITUDE
 40
37.795
  9
$LONGITUDE
 40
-122.394
  9
$NORTHDIRECTION
 40
0.0
  9
$TIMEZONE
 70
 -8000
  9
$LIGHTGLYPHDISPLAY
280
     1
  9
$TILEMODELIGHTSYNCH
280
     1
  9
$SOLIDHIST
280
     0
  9
$SHOWHIST
280
     1
  9
$DWFFRAME
280
     2
  9
$DGNFRAME
280
     2
  9
$REALWORLDSCALE
290
     1
  9
$INTERFERECOLOR
 62
   256
  9
$CSHADOW
280
     0
  9
$SHADOWPLANELOCATION
 40
0.0
  0
ENDSEC
  0
SECTION
  2
CLASSES
  0
CLASS
  1
LWPOLYLINE
  2
AcDbPolyline
  3
ObjectDBX Classes
 90
        0
 91
        1
280
     0
281
     1
  0
CLASS
  1
XRECORD
  2
AcDbXrecord
  3
ObjectDBX Classes
 90
        0
 91
        1
280
     0
281
     0
  0
CLASS
  1
HATCH
  2
AcDbHatch
  3
ObjectDBX Classes
 90
        0
 91
        1
280
     0
281
     1
  0
CLASS
  1
ACDBDICTIONARYWDFLT
  2
AcDbDictionaryWithDefault
  3
ObjectDBX Classes
 90
        0
 91
        5
280
     0
281
     0
  0
CLASS
  1
ACDBPLACEHOLDER
  2
AcDbPlaceHolder
  3
ObjectDBX Classes
 90
        0
 91
        1
280
     0
281
     0
  0
CLASS
  1
LAYOUT
  2
AcDbLayout
  3
ObjectDBX Classes
 90
        0
 91
        1
280
     0
281
     0
  0
CLASS
  1
LONG_TRANSACTION
  2
AcDbLongTransaction
  3
ObjectDBX Classes
 90
        0
 91
        1
280
     0
281
     0
  0
CLASS
  1
LWPOLYLINE
  2
AcDbPolyline
  3
ObjectDBX Classes
 90
        0
 91
        1
280
     0
281
     1
  0
CLASS
  1
HATCH
  2
AcDbHatch
  3
ObjectDBX Classes
 90
        0
 91
        1
280
     0
281
     1
  0
CLASS
  1
XRECORD
  2
AcDbXrecord
  3
ObjectDBX Classes
 90
        0
 91
        1
280
     0
281
     0
  0
CLASS
  1
LONG_TRANSACTION
  2
AcDbLongTransaction
  3
ObjectDBX Classes
 90
        0
 91
        1
280
     0
281
     0
  0
CLASS
  1
LWPOLYLINE
  2
AcDbPolyline
  3
ObjectDBX Classes
 90
        0
 91
        1
280
     0
281
     1
  0
CLASS
  1
HATCH
  2
AcDbHatch
  3
ObjectDBX Classes
 90
        0
 91
        1
280
     0
281
     1
  0
CLASS
  1
XRECORD
  2
AcDbXrecord
  3
ObjectDBX Classes
 90
        0
 91
        1
280
     0
281
     0
  0
CLASS
  1
DICTIONARYVAR
  2
AcDbDictionaryVar
  3
ObjectDBX Classes
 90
        0
 91
        4
280
     0
281
     0
  0
CLASS
  1
LONG_TRANSACTION
  2
AcDbLongTransaction
  3
ObjectDBX Classes
 90
        0
 91
        1
280
     0
281
     0
  0
CLASS
  1
LWPOLYLINE
  2
AcDbPolyline
  3
ObjectDBX Classes
 90
        0
 91
        1
280
     0
281
     1
  0
CLASS
  1
HATCH
  2
AcDbHatch
  3
ObjectDBX Classes
 90
        0
 91
        1
280
     0
281
     1
  0
CLASS
  1
XRECORD
  2
AcDbXrecord
  3
ObjectDBX Classes
 90
        0
 91
        1
280
     0
281
     0
  0
CLASS
  1
VISUALSTYLE
  2
AcDbVisualStyle
  3
ObjectDBX Classes
 90
     4095
 91
        5
280
     0
281
     0
  0
CLASS
  1
SCALE
  2
AcDbScale
  3
ObjectDBX Classes
 90
     1153
 91
        5
280
     0
281
     0
  0
CLASS
  1
MATERIAL
  2
AcDbMaterial
  3
ObjectDBX Classes
 90
     1153
 91
        5
280
     0
281
     0
  0
CLASS
  1
TABLESTYLE
  2
AcDbTableStyle
  3
ObjectDBX Classes
 90
     4095
 91
        5
280
     0
281
     0
  0
CLASS
  1
MLEADERSTYLE
  2
AcDbMLeaderStyle
  3
ACDB_MLEADERSTYLE_CLASS
 90
     4095
 91
        5
280
     0
281
     0
  0
CLASS
  1
SUN
  2
AcDbSun
  3
SCENEOE
 90
     1153
 91
        5
280
     0
281
     0
  0
CLASS
  1
DIMASSOC
  2
AcDbDimAssoc
  3
"AcDbDimAssoc|Product Desc:     AcDim ARX App For Dimension|Company:          Autodesk, Inc.|WEB Address:      www.autodesk.com"
 90
        0
 91
        4
280
     0
281
     0
  0
CLASS
  1
SORTENTSTABLE
  2
AcDbSortentsTable
  3
ObjectDBX Classes
 90
        0
 91
        4
280
     0
281
     0
  0
CLASS
  1
CELLSTYLEMAP
  2
AcDbCellStyleMap
  3
ObjectDBX Classes
 90
     1152
 91
        4
280
     0
281
     0
  0
ENDSEC
  0
SECTION
  2
TABLES
  0
TABLE
  2
VPORT
  5
8
330
0
100
AcDbSymbolTable
 70
    21
  0
VPORT
  5
14043
330
8
100
AcDbSymbolTableRecord
100
AcDbViewportTableRecord
  2
*Active
 70
     0
 10
0.0
 20
0.0
 11
1.0
 21
1.0
 12
111.558519790094
 22
285.09154349626
 13
0.0
 23
0.0
 14
1.0
 24
1.0
 15
8.0
 25
8.0
 16
0.0
 26
0.0
 36
1.0
 17
0.0
 27
0.0
 37
0.0
 40
258.781630296183
 41
1.652947719689
 42
50.0
 43
0.0
 44
0.0
 50
0.0
 51
0.0
 71
    16
 72
   100
 73
     1
 74
     0
 75
     0
 76
     0
 77
     0
 78
     0
281
     0
 65
     1
110
0.0
120
0.0
130
0.0
111
1.0
121
0.0
131
0.0
112
0.0
122
1.0
132
0.0
 79
     0
146
0.0
 60
     3
 61
     5
292
     1
282
     1
141
0.0
142
0.0
 63
   256
361
14088
  0
ENDTAB
  0
TABLE
  2
LTYPE
  5
5
330
0
100
AcDbSymbolTable
 70
    12
  0
LTYPE
  5
12
330
5
100
AcDbSymbolTableRecord
100
AcDbLinetypeTableRecord
  2
BYBLOCK
 70
     0
  3

 72
    65
 73
     0
 40
0.0
  0
LTYPE
  5
13
330
5
100
AcDbSymbolTableRecord
100
AcDbLinetypeTableRecord
  2
BYLAYER
 70
     0
  3

 72
    65
 73
     0
 40
0.0
  0
LTYPE
  5
14
330
5
100
AcDbSymbolTableRecord
100
AcDbLinetypeTableRecord
  2
CONTINUOUS
 70
     0
  3
Solid line
 72
    65
 73
     0
 40
0.0
  0
LTYPE
  5
1E
330
5
100
AcDbSymbolTableRecord
100
AcDbLinetypeTableRecord
  2
GEN3
 70
     0
  3
-- -- -- -- -- -- -- -- -- -- -- -- -- -- --
 72
    65
 73
     2
 40
6.25
 49
5.0
 74
     0
 49
-1.25
 74
     0
  0
LTYPE
  5
1F
330
5
100
AcDbSymbolTableRecord
100
AcDbLinetypeTableRecord
  2
GEN3A
 70
     0
  3
 - - - - -
 72
    65
 73
     2
 40
3.1
 49
2.5
 74
     0
 49
-0.6
 74
     0
  0
LTYPE
  5
20
330
5
100
AcDbSymbolTableRecord
100
AcDbLinetypeTableRecord
  2
GEN7
 70
     0
  3
____ . ____ . ____ . ____ . ____ . ____ . ____
 72
    65
 73
     4
 40
15.5
 49
10.0
 74
     0
 49
-2.0
 74
     0
 49
1.5
 74
     0
 49
-2.0
 74
     0
  0
LTYPE
  5
21
330
5
100
AcDbSymbolTableRecord
100
AcDbLinetypeTableRecord
  2
GEN7A
 70
     0
  3
__ . __ . __
 72
    65
 73
     4
 40
7.5
 49
5.0
 74
     0
 49
-1.25
 74
     0
 49
0.0
 74
     0
 49
-1.25
 74
     0
  0
LTYPE
  5
22
330
5
100
AcDbSymbolTableRecord
100
AcDbLinetypeTableRecord
  2
GEN4A
 70
     0
  3
_____ . . _____ . . _____ . . ____ .. ____
 72
    65
 73
     6
 40
17.5
 49
10.0
 74
     0
 49
-2.5
 74
     0
 49
0.0
 74
     0
 49
-2.5
 74
     0
 49
0.0
 74
     0
 49
-2.5
 74
     0
  0
LTYPE
  5
3662
330
5
100
AcDbSymbolTableRecord
100
AcDbLinetypeTableRecord
  2
CENTER2
 70
     0
  3
___ _ ___ _ ___ _ ___ _ ___ _ ___ _ ___ _ ___ _
 72
    65
 73
     4
 40
1.125
 49
0.75
 74
     0
 49
-0.125
 74
     0
 49
0.125
 74
     0
 49
-0.125
 74
     0
  0
LTYPE
  5
6838
330
5
100
AcDbSymbolTableRecord
100
AcDbLinetypeTableRecord
  2
CENTER
 70
     0
  3
____ _ ____ _ ____ _ ____ _ ____ _ ____ _ ____ 
 72
    65
 73
     4
 40
2.0
 49
1.25
 74
     0
 49
-0.25
 74
     0
 49
0.25
 74
     0
 49
-0.25
 74
     0
  0
LTYPE
  5
6839
330
5
100
AcDbSymbolTableRecord
100
AcDbLinetypeTableRecord
  2
DASHED
 70
     0
  3
__ __ __ __ __ __ __ __ __ __ __ __ __ __ __
 72
    65
 73
     2
 40
0.75
 49
0.5
 74
     0
 49
-0.25
 74
     0
  0
LTYPE
  5
8100
330
5
100
AcDbSymbolTableRecord
100
AcDbLinetypeTableRecord
  2
PHANTOM
 70
     0
  3
______  __  __  ______  __  __  ______  __  __ 
 72
    65
 73
     6
 40
2.5
 49
1.25
 74
     0
 49
-0.25
 74
     0
 49
0.25
 74
     0
 49
-0.25
 74
     0
 49
0.25
 74
     0
 49
-0.25
 74
     0
  0
LTYPE
  5
AE27
330
5
100
AcDbSymbolTableRecord
100
AcDbLinetypeTableRecord
  2
HIDDEN
 70
     0
  3
Hidden __ __ __ __ __ __ __ __ __ __ __ __ __ _
 72
    65
 73
     2
 40
9.525
 49
6.35
 74
     0
 49
-3.175
 74
     0
  0
LTYPE
  5
1412A
330
5
100
AcDbSymbolTableRecord
100
AcDbLinetypeTableRecord
  2
DYN_DIM
 70
     0
  3
Dashed dynamic dimension line
 72
    65
 73
     2
 40
1.277743474142
 49
0.365069564041
 74
     0
 49
-0.912673910101
 74
     0
  0
ENDTAB
  0
TABLE
  2
LAYER
  5
2
330
0
100
AcDbSymbolTable
 70
    23
  0
LAYER
  5
F
330
2
100
AcDbSymbolTableRecord
100
AcDbLayerTableRecord
  2
0
 70
     0
 62
     7
  6
CONTINUOUS
370
    30
390
3562
347
14082
348
0
  0
LAYER
  5
2F
330
2
100
AcDbSymbolTableRecord
100
AcDbLayerTableRecord
  2
3D
 70
     0
 62
     6
  6
DASHED
370
    15
390
3562
347
14082
348
0
  0
LAYER
  5
33
330
2
100
AcDbSymbolTableRecord
100
AcDbLayerTableRecord
  2
5
 70
     0
 62
     3
  6
CONTINUOUS
370
    15
390
3562
347
14082
348
0
  0
LAYER
  5
34
330
2
100
AcDbSymbolTableRecord
100
AcDbLayerTableRecord
  2
6
 70
     0
 62
     2
  6
CONTINUOUS
370
    15
390
3562
347
14082
348
0
  0
LAYER
  5
35
330
2
100
AcDbSymbolTableRecord
100
AcDbLayerTableRecord
  2
7
 70
     0
 62
     4
  6
CONTINUOUS
370
    15
390
3562
347
14082
348
0
  0
LAYER
  5
36
330
2
100
AcDbSymbolTableRecord
100
AcDbLayerTableRecord
  2
8
 70
     0
 62
     1
  6
CONTINUOUS
370
     9
390
3562
347
14082
348
0
  0
LAYER
  5
26C
330
2
100
AcDbSymbolTableRecord
100
AcDbLayerTableRecord
  2
_-
 70
     0
 62
     7
  6
CONTINUOUS
370
    -3
390
3562
347
14082
348
0
  0
LAYER
  5
3664
330
2
100
AcDbSymbolTableRecord
100
AcDbLayerTableRecord
  2
DEFPOINTS
 70
     0
 62
     7
  6
CONTINUOUS
290
     0
370
    -3
390
3562
347
14082
348
0
  0
LAYER
  5
ADEB
330
2
100
AcDbSymbolTableRecord
100
AcDbLayerTableRecord
  2
4P
 70
     0
 62
     3
  6
PHANTOM
370
    15
390
3562
347
14082
348
0
  0
LAYER
  5
AF28
330
2
100
AcDbSymbolTableRecord
100
AcDbLayerTableRecord
  2
10
 70
     0
 62
     7
  6
CONTINUOUS
370
    30
390
3562
347
14082
348
0
  0
ENDTAB
  0
TABLE
  2
STYLE
  5
3
330
0
100
AcDbSymbolTable
 70
    10
  0
STYLE
  5
10
330
3
100
AcDbSymbolTableRecord
100
AcDbTextStyleTableRecord
  2
STANDARD
 70
     0
 40
3.2
 41
1.0
 50
0.0
 71
     0
 42
3.2
  3
MS Mincho.ttf
  4

1001
ACAD
1000
MS Mincho
1071
    32785
  0
STYLE
  5
73
330
3
100
AcDbSymbolTableRecord
100
AcDbTextStyleTableRecord
  2
FRAME
 70
     0
 40
4.0
 41
0.7
 50
0.0
 71
     0
 42
4.0
  3
txt.shx
  4
extfont.shx
  0
STYLE
  5
26D
330
3
100
AcDbSymbolTableRecord
100
AcDbTextStyleTableRecord
  2
BIGFONT
 70
     0
 40
2.0
 41
0.7
 50
0.0
 71
     0
 42
3.0
  3
txt.shx
  4
extfont.shx
  0
STYLE
  5
26E
330
3
100
AcDbSymbolTableRecord
100
AcDbTextStyleTableRecord
  2
ROMANC
 70
     0
 40
3.4
 41
0.7
 50
0.0
 71
     0
 42
1.5
  3
romanc
  4

  0
STYLE
  5
26F
330
3
100
AcDbSymbolTableRecord
100
AcDbTextStyleTableRecord
  2
EXTFONT
 70
     0
 40
4.0
 41
0.7
 50
0.0
 71
     0
 42
4.0
  3
txt.shx
  4
extfont.shx
  0
STYLE
  5
635
330
3
100
AcDbSymbolTableRecord
100
AcDbTextStyleTableRecord
  2
TATE
 70
     4
 40
0.0
 41
1.0
 50
0.0
 71
     0
 42
3.0
  3
txt.shx
  4
extfont.shx
  0
STYLE
  5
636
330
3
100
AcDbSymbolTableRecord
100
AcDbTextStyleTableRecord
  2
YOKO
 70
     0
 40
0.0
 41
1.0
 50
0.0
 71
     0
 42
45.222406714511
  3
TXT.SHX
  4
extfont.shx
  0
STYLE
  5
356F
330
3
100
AcDbSymbolTableRecord
100
AcDbTextStyleTableRecord
  2
FX_FONT
 70
     0
 40
3.2
 41
1.0
 50
0.0
 71
     0
 42
1.0
  3
txt.shx
  4
extfont.shx
  0
STYLE
  5
ADE9
330
3
100
AcDbSymbolTableRecord
100
AcDbTextStyleTableRecord
  2

 70
     1
 40
0.0
 41
1.0
 50
0.0
 71
     0
 42
3.2
  3
ltypeshp.shx
  4

  0
STYLE
  5
14129
330
3
100
AcDbSymbolTableRecord
100
AcDbTextStyleTableRecord
  2
DYN_DIM
 70
     0
 40
0.0
 41
1.0
 50
0.0
 71
     0
 42
4.0
  3
msmincho.ttc
  4

1001
ACAD
1000
MS Mincho
1071
    32785
  0
ENDTAB
  0
TABLE
  2
VIEW
  5
6
330
0
100
AcDbSymbolTable
 70
     0
  0
ENDTAB
  0
TABLE
  2
UCS
  5
7
330
0
100
AcDbSymbolTable
 70
     0
  0
ENDTAB
  0
TABLE
  2
APPID
  5
9
330
0
100
AcDbSymbolTable
 70
     7
  0
APPID
  5
11
330
9
100
AcDbSymbolTableRecord
100
AcDbRegAppTableRecord
  2
ACAD
 70
     0
  0
APPID
  5
63F
330
9
100
AcDbSymbolTableRecord
100
AcDbRegAppTableRecord
  2
GLOBAL
 70
     0
  0
APPID
  5
640
330
9
100
AcDbSymbolTableRecord
100
AcDbRegAppTableRecord
  2
DETAIL
 70
     0
  0
APPID
  5
E05
330
9
100
AcDbSymbolTableRecord
100
AcDbRegAppTableRecord
  2
GRPNAME
 70
     0
  0
APPID
  5
E06
330
9
100
AcDbSymbolTableRecord
100
AcDbRegAppTableRecord
  2
ITEMNAME
 70
     0
  0
APPID
  5
14132
330
9
100
AcDbSymbolTableRecord
100
AcDbRegAppTableRecord
  2
AcadAnnotative
 70
     0
  0
APPID
  5
145EF
330
9
100
AcDbSymbolTableRecord
100
AcDbRegAppTableRecord
  2
ACAD_MLEADERVER
 70
     0
  0
ENDTAB
  0
TABLE
  2
DIMSTYLE
  5
A
330
0
100
AcDbSymbolTable
 70
     4
100
AcDbDimStyleTable
  0
DIMSTYLE
105
25
102
{ACAD_REACTORS
330
14216
330
14280
330
1428D
330
14371
330
143DB
330
143E8
102
}
330
A
100
AcDbSymbolTableRecord
100
AcDbDimStyleTableRecord
  2
GEN-ISO
 70
     0
 41
2.5
 42
1.0
 43
8.0
 44
2.0
 47
0.1
 48
0.1
 73
     0
 74
     0
 77
     1
 78
     8
 79
     2
140
4.0
141
2.0
146
0.7
147
1.0
172
     1
178
     2
179
     2
284
     8
285
     8
286
     8
340
26F
341
3A45
342
3A45
  0
DIMSTYLE
105
29
102
{ACAD_REACTORS
330
1429F
330
142AE
330
142BD
330
143FA
330
14409
330
14418
102
}
330
A
100
AcDbSymbolTableRecord
100
AcDbDimStyleTableRecord
  2
RADIUS-NORMAL
 70
     0
  3
R<>
 41
2.5
 42
1.0
 43
8.0
 44
2.0
 47
0.1
 48
0.1
 73
     0
 77
     1
 78
     8
 79
     2
140
4.0
141
2.0
146
0.7
147
1.0
172
     1
178
     2
179
     2
284
     8
285
     8
286
     8
340
26F
341
3A45
342
3A45
  0
DIMSTYLE
105
2A
102
{ACAD_REACTORS
330
141F7
330
14204
330
14352
330
1435F
102
}
330
A
100
AcDbSymbolTableRecord
100
AcDbDimStyleTableRecord
  2
CIRCLE-NORMAL
 70
     0
  3
%%C<>
 41
2.5
 42
1.0
 43
8.0
 44
2.0
 47
0.1
 48
0.1
 73
     0
 74
     0
 77
     1
 78
     8
 79
     2
140
4.0
141
2.0
146
0.7
147
1.0
172
     1
178
     2
179
     2
284
     8
285
     8
286
     8
340
26F
341
3A45
342
3A45
  0
DIMSTYLE
105
3CD
330
A
100
AcDbSymbolTableRecord
100
AcDbDimStyleTableRecord
  2
STANDARD
 70
     0
178
     0
340
10
  0
ENDTAB
  0
TABLE
  2
BLOCK_RECORD
  5
1
330
0
100
AcDbSymbolTable
 70
   137
  0
BLOCK_RECORD
  5
18
102
{ACAD_XDICTIONARY
360
14133
102
}
330
1
100
AcDbSymbolTableRecord
100
AcDbBlockTableRecord
  2
*MODEL_SPACE
340
3565
 70
     0
280
     1
281
     0
  0
BLOCK_RECORD
  5
15
330
1
100
AcDbSymbolTableRecord
100
AcDbBlockTableRecord
  2
*PAPER_SPACE
340
3566
 70
     0
280
     1
281
     0
  0
BLOCK_RECORD
  5
3A45
330
1
100
AcDbSymbolTableRecord
100
AcDbBlockTableRecord
  2
_Open30
340
0
102
{BLKREFS
331
141FD
331
141FE
331
1420A
331
1420B
331
1421C
331
1421D
331
14286
331
14287
331
14293
331
14294
331
142A9
331
142AA
331
142B8
331
142B9
331
142C5
331
142C6
331
14358
331
14359
331
14365
331
14366
331
14377
331
14378
331
143E1
331
143E2
331
143EE
331
143EF
331
14404
331
14405
331
14413
331
14414
331
14420
331
14421
102
}
 70
     0
280
     1
281
     0
  0
BLOCK_RECORD
  5
12EE2
330
1
100
AcDbSymbolTableRecord
100
AcDbBlockTableRecord
  2
FXDIM0000
340
0
 70
     0
280
     1
281
     0
  0
BLOCK_RECORD
  5
12EEA
330
1
100
AcDbSymbolTableRecord
100
AcDbBlockTableRecord
  2
FXDIM0001
340
0
 70
     0
280
     1
281
     0
  0
BLOCK_RECORD
  5
12F13
330
1
100
AcDbSymbolTableRecord
100
AcDbBlockTableRecord
  2
FXDIM0002
340
0
 70
     0
280
     1
281
     0
  0
BLOCK_RECORD
  5
12F1B
330
1
100
AcDbSymbolTableRecord
100
AcDbBlockTableRecord
  2
FXDIM0003
340
0
 70
     0
280
     1
281
     0
  0
BLOCK_RECORD
  5
12F9D
330
1
100
AcDbSymbolTableRecord
100
AcDbBlockTableRecord
  2
FXDIM0004
340
0
 70
     0
280
     1
281
     0
  0
BLOCK_RECORD
  5
12FA5
330
1
100
AcDbSymbolTableRecord
100
AcDbBlockTableRecord
  2
FXDIM0005
340
0
 70
     0
280
     1
281
     0
  0
BLOCK_RECORD
  5
12FAD
330
1
100
AcDbSymbolTableRecord
100
AcDbBlockTableRecord
  2
FXDIM0006
340
0
 70
     0
280
     1
281
     0
  0
BLOCK_RECORD
  5
12FB5
330
1
100
AcDbSymbolTableRecord
100
AcDbBlockTableRecord
  2
FXDIM0007
340
0
 70
     0
280
     1
281
     0
  0
BLOCK_RECORD
  5
12FBD
330
1
100
AcDbSymbolTableRecord
100
AcDbBlockTableRecord
  2
FXDIM0008
340
0
 70
     0
280
     1
281
     0
  0
BLOCK_RECORD
  5
13033
330
1
100
AcDbSymbolTableRecord
100
AcDbBlockTableRecord
  2
FXDIM0009
340
0
 70
     0
280
     1
281
     0
  0
BLOCK_RECORD
  5
13043
330
1
100
AcDbSymbolTableRecord
100
AcDbBlockTableRecord
  2
FXDIM0010
340
0
 70
     0
280
     1
281
     0
  0
BLOCK_RECORD
  5
13048
330
1
100
AcDbSymbolTableRecord
100
AcDbBlockTableRecord
  2
FXDIM0011
340
0
 70
     0
280
     1
281
     0
  0
BLOCK_RECORD
  5
13052
330
1
100
AcDbSymbolTableRecord
100
AcDbBlockTableRecord
  2
FXDIM0012
340
0
 70
     0
280
     1
281
     0
  0
BLOCK_RECORD
  5
1305F
330
1
100
AcDbSymbolTableRecord
100
AcDbBlockTableRecord
  2
FXDIM0013
340
0
 70
     0
280
     1
281
     0
  0
BLOCK_RECORD
  5
13067
330
1
100
AcDbSymbolTableRecord
100
AcDbBlockTableRecord
  2
FXDIM0014
340
0
 70
     0
280
     1
281
     0
  0
BLOCK_RECORD
  5
1306F
330
1
100
AcDbSymbolTableRecord
100
AcDbBlockTableRecord
  2
FXDIM0015
340
0
 70
     0
280
     1
281
     0
  0
BLOCK_RECORD
  5
13077
330
1
100
AcDbSymbolTableRecord
100
AcDbBlockTableRecord
  2
FXDIM0016
340
0
 70
     0
280
     1
281
     0
  0
BLOCK_RECORD
  5
1307F
330
1
100
AcDbSymbolTableRecord
100
AcDbBlockTableRecord
  2
FXDIM0017
340
0
 70
     0
280
     1
281
     0
  0
BLOCK_RECORD
  5
13087
330
1
100
AcDbSymbolTableRecord
100
AcDbBlockTableRecord
  2
FXDIM0018
340
0
 70
     0
280
     1
281
     0
  0
BLOCK_RECORD
  5
1308F
330
1
100
AcDbSymbolTableRecord
100
AcDbBlockTableRecord
  2
BLKF0000
340
0
 70
     0
280
     1
281
     0
  0
BLOCK_RECORD
  5
130A9
330
1
100
AcDbSymbolTableRecord
100
AcDbBlockTableRecord
  2
BLKF0001
340
0
 70
     0
280
     1
281
     0
  0
BLOCK_RECORD
  5
130C3
330
1
100
AcDbSymbolTableRecord
100
AcDbBlockTableRecord
  2
BLKF0002
340
0
 70
     0
280
     1
281
     0
  0
BLOCK_RECORD
  5
13E61
330
1
100
AcDbSymbolTableRecord
100
AcDbBlockTableRecord
  2
_DotSmall
340
0
 70
     0
280
     1
281
     0
  0
BLOCK_RECORD
  5
14185
102
{ACAD_XDICTIONARY
360
141BB
102
}
330
1
100
AcDbSymbolTableRecord
100
AcDbBlockTableRecord
  2
A8B0128
340
0
 70
     0
280
     1
281
     0
  0
BLOCK_RECORD
  5
141F8
330
1
100
AcDbSymbolTableRecord
100
AcDbBlockTableRecord
  2
*D113
340
0
 70
     0
280
     1
281
     0
  0
BLOCK_RECORD
  5
14205
330
1
100
AcDbSymbolTableRecord
100
AcDbBlockTableRecord
  2
*D114
340
0
 70
     0
280
     1
281
     0
  0
BLOCK_RECORD
  5
14217
330
1
100
AcDbSymbolTableRecord
100
AcDbBlockTableRecord
  2
*D115
340
0
 70
     0
280
     1
281
     0
  0
BLOCK_RECORD
  5
14281
330
1
100
AcDbSymbolTableRecord
100
AcDbBlockTableRecord
  2
*D116
340
0
 70
     0
280
     1
281
     0
  0
BLOCK_RECORD
  5
1428E
330
1
100
AcDbSymbolTableRecord
100
AcDbBlockTableRecord
  2
*D117
340
0
 70
     0
280
     1
281
     0
  0
BLOCK_RECORD
  5
142A2
330
1
100
AcDbSymbolTableRecord
100
AcDbBlockTableRecord
  2
*D118
340
0
 70
     0
280
     1
281
     0
  0
BLOCK_RECORD
  5
142B1
330
1
100
AcDbSymbolTableRecord
100
AcDbBlockTableRecord
  2
*D119
340
0
 70
     0
280
     1
281
     0
  0
BLOCK_RECORD
  5
142C0
330
1
100
AcDbSymbolTableRecord
100
AcDbBlockTableRecord
  2
*D120
340
0
 70
     0
280
     1
281
     0
  0
BLOCK_RECORD
  5
142E0
102
{ACAD_XDICTIONARY
360
14316
102
}
330
1
100
AcDbSymbolTableRecord
100
AcDbBlockTableRecord
  2
A8B0148
340
0
 70
     0
280
     1
281
     0
  0
BLOCK_RECORD
  5
14353
330
1
100
AcDbSymbolTableRecord
100
AcDbBlockTableRecord
  2
*D122
340
0
 70
     0
280
     1
281
     0
  0
BLOCK_RECORD
  5
14360
330
1
100
AcDbSymbolTableRecord
100
AcDbBlockTableRecord
  2
*D123
340
0
 70
     0
280
     1
281
     0
  0
BLOCK_RECORD
  5
14372
330
1
100
AcDbSymbolTableRecord
100
AcDbBlockTableRecord
  2
*D124
340
0
 70
     0
280
     1
281
     0
  0
BLOCK_RECORD
  5
143DC
330
1
100
AcDbSymbolTableRecord
100
AcDbBlockTableRecord
  2
*D125
340
0
 70
     0
280
     1
281
     0
  0
BLOCK_RECORD
  5
143E9
330
1
100
AcDbSymbolTableRecord
100
AcDbBlockTableRecord
  2
*D126
340
0
 70
     0
280
     1
281
     0
  0
BLOCK_RECORD
  5
143FD
330
1
100
AcDbSymbolTableRecord
100
AcDbBlockTableRecord
  2
*D127
340
0
 70
     0
280
     1
281
     0
  0
BLOCK_RECORD
  5
1440C
330
1
100
AcDbSymbolTableRecord
100
AcDbBlockTableRecord
  2
*D128
340
0
 70
     0
280
     1
281
     0
  0
BLOCK_RECORD
  5
1441B
330
1
100
AcDbSymbolTableRecord
100
AcDbBlockTableRecord
  2
*D129
340
0
 70
     0
280
     1
281
     0
  0
BLOCK_RECORD
  5
1486F
102
{ACAD_XDICTIONARY
360
1489A
102
}
330
1
100
AcDbSymbolTableRecord
100
AcDbBlockTableRecord
  2
AD60158
340
0
 70
     0
280
     1
281
     0
  0
BLOCK_RECORD
  5
148A1
102
{ACAD_XDICTIONARY
360
148CC
102
}
330
1
100
AcDbSymbolTableRecord
100
AcDbBlockTableRecord
  2
AD60168
340
0
 70
     0
280
     1
281
     0
  0
ENDTAB
  0
ENDSEC
  0
SECTION
  2
BLOCKS
  0
BLOCK
  5
4F
330
18
100
AcDbEntity
  8
0
100
AcDbBlockBegin
  2
*MODEL_SPACE
 70
     0
 10
0.0
 20
0.0
 30
0.0
  3
*MODEL_SPACE
  1

  0
ENDBLK
  5
50
330
18
100
AcDbEntity
  8
0
100
AcDbBlockEnd
  0
BLOCK
  5
4D
330
15
100
AcDbEntity
 67
     1
  8
0
100
AcDbBlockBegin
  2
*PAPER_SPACE
 70
     0
 10
0.0
 20
0.0
 30
0.0
  3
*PAPER_SPACE
  1

  0
ENDBLK
  5
4E
330
15
100
AcDbEntity
 67
     1
  8
0
100
AcDbBlockEnd
  0
BLOCK
  5
3A49
330
3A45
100
AcDbEntity
  8
0
100
AcDbBlockBegin
  2
_Open30
 70
     0
 10
0.0
 20
0.0
 30
0.0
  3
_Open30
  1

  0
LINE
  5
3A46
330
3A45
100
AcDbEntity
  8
0
  6
ByBlock
 62
     0
370
    -2
100
AcDbLine
 10
-1.0
 20
0.26794919
 30
0.0
 11
0.0
 21
0.0
 31
0.0
  0
LINE
  5
3A47
330
3A45
100
AcDbEntity
  8
0
  6
ByBlock
 62
     0
370
    -2
100
AcDbLine
 10
0.0
 20
0.0
 30
0.0
 11
-1.0
 21
-0.26794919
 31
0.0
  0
LINE
  5
3A48
330
3A45
100
AcDbEntity
  8
0
  6
ByBlock
 62
     0
370
    -2
100
AcDbLine
 10
0.0
 20
0.0
 30
0.0
 11
-1.0
 21
0.0
 31
0.0
  0
ENDBLK
  5
3A4A
330
3A45
100
AcDbEntity
  8
0
100
AcDbBlockEnd
  0
BLOCK
  5
145F5
330
12EE2
100
AcDbEntity
  8
0
100
AcDbBlockBegin
  2
FXDIM0000
 70
     0
 10
0.0
 20
0.0
 30
0.0
  3
FXDIM0000
  1

  0
ENDBLK
  5
12EE9
330
12EE2
100
AcDbEntity
  8
0
100
AcDbBlockEnd
  0
BLOCK
  5
145F6
330
12EEA
100
AcDbEntity
  8
0
100
AcDbBlockBegin
  2
FXDIM0001
 70
     0
 10
0.0
 20
0.0
 30
0.0
  3
FXDIM0001
  1

  0
ENDBLK
  5
12EF1
330
12EEA
100
AcDbEntity
  8
0
100
AcDbBlockEnd
  0
BLOCK
  5
145F7
330
12F13
100
AcDbEntity
  8
0
100
AcDbBlockBegin
  2
FXDIM0002
 70
     0
 10
0.0
 20
0.0
 30
0.0
  3
FXDIM0002
  1

  0
ENDBLK
  5
12F1A
330
12F13
100
AcDbEntity
  8
0
100
AcDbBlockEnd
  0
BLOCK
  5
145F8
330
12F1B
100
AcDbEntity
  8
0
100
AcDbBlockBegin
  2
FXDIM0003
 70
     0
 10
0.0
 20
0.0
 30
0.0
  3
FXDIM0003
  1

  0
ENDBLK
  5
12F22
330
12F1B
100
AcDbEntity
  8
0
100
AcDbBlockEnd
  0
BLOCK
  5
145F9
330
12F9D
100
AcDbEntity
  8
0
100
AcDbBlockBegin
  2
FXDIM0004
 70
     0
 10
0.0
 20
0.0
 30
0.0
  3
FXDIM0004
  1

  0
ENDBLK
  5
12FA4
330
12F9D
100
AcDbEntity
  8
0
100
AcDbBlockEnd
  0
BLOCK
  5
145FA
330
12FA5
100
AcDbEntity
  8
0
100
AcDbBlockBegin
  2
FXDIM0005
 70
     0
 10
0.0
 20
0.0
 30
0.0
  3
FXDIM0005
  1

  0
ENDBLK
  5
12FAC
330
12FA5
100
AcDbEntity
  8
0
100
AcDbBlockEnd
  0
BLOCK
  5
145FB
330
12FAD
100
AcDbEntity
  8
0
100
AcDbBlockBegin
  2
FXDIM0006
 70
     0
 10
0.0
 20
0.0
 30
0.0
  3
FXDIM0006
  1

  0
ENDBLK
  5
12FB4
330
12FAD
100
AcDbEntity
  8
0
100
AcDbBlockEnd
  0
BLOCK
  5
145FC
330
12FB5
100
AcDbEntity
  8
0
100
AcDbBlockBegin
  2
FXDIM0007
 70
     0
 10
0.0
 20
0.0
 30
0.0
  3
FXDIM0007
  1

  0
ENDBLK
  5
12FBC
330
12FB5
100
AcDbEntity
  8
0
100
AcDbBlockEnd
  0
BLOCK
  5
145FD
330
12FBD
100
AcDbEntity
  8
0
100
AcDbBlockBegin
  2
FXDIM0008
 70
     0
 10
0.0
 20
0.0
 30
0.0
  3
FXDIM0008
  1

  0
ENDBLK
  5
12FC4
330
12FBD
100
AcDbEntity
  8
0
100
AcDbBlockEnd
  0
BLOCK
  5
145FE
330
13033
100
AcDbEntity
  8
0
100
AcDbBlockBegin
  2
FXDIM0009
 70
     0
 10
0.0
 20
0.0
 30
0.0
  3
FXDIM0009
  1

  0
ENDBLK
  5
13038
330
13033
100
AcDbEntity
  8
0
100
AcDbBlockEnd
  0
BLOCK
  5
145FF
330
13043
100
AcDbEntity
  8
0
100
AcDbBlockBegin
  2
FXDIM0010
 70
     0
 10
0.0
 20
0.0
 30
0.0
  3
FXDIM0010
  1

  0
ENDBLK
  5
13047
330
13043
100
AcDbEntity
  8
0
100
AcDbBlockEnd
  0
BLOCK
  5
14600
330
13048
100
AcDbEntity
  8
0
100
AcDbBlockBegin
  2
FXDIM0011
 70
     0
 10
0.0
 20
0.0
 30
0.0
  3
FXDIM0011
  1

  0
ENDBLK
  5
13051
330
13048
100
AcDbEntity
  8
0
100
AcDbBlockEnd
  0
BLOCK
  5
14601
330
13052
100
AcDbEntity
  8
0
100
AcDbBlockBegin
  2
FXDIM0012
 70
     0
 10
0.0
 20
0.0
 30
0.0
  3
FXDIM0012
  1

  0
ENDBLK
  5
13055
330
13052
100
AcDbEntity
  8
0
100
AcDbBlockEnd
  0
BLOCK
  5
14602
330
1305F
100
AcDbEntity
  8
0
100
AcDbBlockBegin
  2
FXDIM0013
 70
     0
 10
0.0
 20
0.0
 30
0.0
  3
FXDIM0013
  1

  0
ENDBLK
  5
13066
330
1305F
100
AcDbEntity
  8
0
100
AcDbBlockEnd
  0
BLOCK
  5
14603
330
13067
100
AcDbEntity
  8
0
100
AcDbBlockBegin
  2
FXDIM0014
 70
     0
 10
0.0
 20
0.0
 30
0.0
  3
FXDIM0014
  1

  0
ENDBLK
  5
1306E
330
13067
100
AcDbEntity
  8
0
100
AcDbBlockEnd
  0
BLOCK
  5
14604
330
1306F
100
AcDbEntity
  8
0
100
AcDbBlockBegin
  2
FXDIM0015
 70
     0
 10
0.0
 20
0.0
 30
0.0
  3
FXDIM0015
  1

  0
ENDBLK
  5
13076
330
1306F
100
AcDbEntity
  8
0
100
AcDbBlockEnd
  0
BLOCK
  5
14605
330
13077
100
AcDbEntity
  8
0
100
AcDbBlockBegin
  2
FXDIM0016
 70
     0
 10
0.0
 20
0.0
 30
0.0
  3
FXDIM0016
  1

  0
ENDBLK
  5
1307E
330
13077
100
AcDbEntity
  8
0
100
AcDbBlockEnd
  0
BLOCK
  5
14606
330
1307F
100
AcDbEntity
  8
0
100
AcDbBlockBegin
  2
FXDIM0017
 70
     0
 10
0.0
 20
0.0
 30
0.0
  3
FXDIM0017
  1

  0
ENDBLK
  5
13086
330
1307F
100
AcDbEntity
  8
0
100
AcDbBlockEnd
  0
BLOCK
  5
14607
330
13087
100
AcDbEntity
  8
0
100
AcDbBlockBegin
  2
FXDIM0018
 70
     0
 10
0.0
 20
0.0
 30
0.0
  3
FXDIM0018
  1

  0
ENDBLK
  5
1308E
330
13087
100
AcDbEntity
  8
0
100
AcDbBlockEnd
  0
BLOCK
  5
14608
330
1308F
100
AcDbEntity
  8
0
100
AcDbBlockBegin
  2
BLKF0000
 70
     0
 10
0.0
 20
0.0
 30
0.0
  3
BLKF0000
  1

  0
ENDBLK
  5
130A8
330
1308F
100
AcDbEntity
  8
0
100
AcDbBlockEnd
  0
BLOCK
  5
14609
330
130A9
100
AcDbEntity
  8
0
100
AcDbBlockBegin
  2
BLKF0001
 70
     0
 10
0.0
 20
0.0
 30
0.0
  3
BLKF0001
  1

  0
ENDBLK
  5
130C2
330
130A9
100
AcDbEntity
  8
0
100
AcDbBlockEnd
  0
BLOCK
  5
1460A
330
130C3
100
AcDbEntity
  8
0
100
AcDbBlockBegin
  2
BLKF0002
 70
     0
 10
0.0
 20
0.0
 30
0.0
  3
BLKF0002
  1

  0
ENDBLK
  5
130E7
330
130C3
100
AcDbEntity
  8
0
100
AcDbBlockEnd
  0
BLOCK
  5
13E63
330
13E61
100
AcDbEntity
  8
0
100
AcDbBlockBegin
  2
_DotSmall
 70
     0
 10
0.0
 20
0.0
 30
0.0
  3
_DotSmall
  1

  0
LWPOLYLINE
  5
13E62
330
13E61
100
AcDbEntity
  8
0
  6
ByBlock
 62
     0
100
AcDbPolyline
 90
        2
 70
     1
 43
0.5
 10
-0.0625
 20
0.0
 42
1.0
 10
0.0625
 20
0.0
 42
1.0
  0
ENDBLK
  5
13E64
330
13E61
100
AcDbEntity
  8
0
100
AcDbBlockEnd
  0
BLOCK
  5
142CE
330
14185
100
AcDbEntity
  8
0
100
AcDbBlockBegin
  2
A8B0128
 70
     0
 10
0.0
 20
0.0
 30
0.0
  3
A8B0128
  1

  0
LINE
  5
141BD
330
14185
100
AcDbEntity
  8
7
100
AcDbLine
 10
44.06796
 20
45.129576
 30
0.0
 11
44.06796
 21
136.770443
 31
0.0
  0
ARC
  5
141BE
330
14185
100
AcDbEntity
  8
10
  6
Continuous
100
AcDbCircle
 10
44.06796
 20
90.676817
 30
0.0
 40
29.5
100
AcDbArc
 50
173.565404
 51
6.434596
  0
CIRCLE
  5
141BF
330
14185
100
AcDbEntity
  8
10
  6
Continuous
100
AcDbCircle
 10
44.06796
 20
90.676817
 30
0.0
 40
37.5
  0
CIRCLE
  5
141C0
330
14185
100
AcDbEntity
  8
10
  6
Continuous
100
AcDbCircle
 10
44.06796
 20
90.676817
 30
0.0
 40
30.5
  0
CIRCLE
  5
141C1
330
14185
100
AcDbEntity
  8
10
  6
Continuous
100
AcDbCircle
 10
44.06796
 20
90.676817
 30
0.0
 40
30.4
  0
LINE
  5
141C2
330
14185
100
AcDbEntity
  8
7
100
AcDbLine
 10
0.0
 20
90.676817
 30
0.0
 11
86.687306
 21
90.676817
 31
0.0
  0
ARC
  5
141C3
330
14185
100
AcDbEntity
  8
10
  6
Continuous
100
AcDbCircle
 10
44.06796
 20
90.676817
 30
0.0
 40
13.0
100
AcDbArc
 50
218.632779000002
 51
321.367220999998
  0
ARC
  5
141C4
330
14185
100
AcDbEntity
  8
10
  6
Continuous
100
AcDbCircle
 10
44.06796
 20
90.676817
 30
0.0
 40
13.0
100
AcDbArc
 50
38.632779000002
 51
141.367220999998
  0
LINE
  5
141C5
330
14185
100
AcDbEntity
  8
10
  6
Continuous
100
AcDbLine
 10
47.678783
 20
101.067291
 30
0.0
 11
65.732088
 21
94.793537
 31
0.0
  0
LINE
  5
141C6
330
14185
100
AcDbEntity
  8
10
  6
Continuous
100
AcDbLine
 10
65.732088
 20
86.560097
 30
0.0
 11
47.678783
 21
80.286343
 31
0.0
  0
LINE
  5
141C7
330
14185
100
AcDbEntity
  8
10
  6
Continuous
100
AcDbLine
 10
47.110242
 20
81.92237
 30
0.0
 11
64.000088
 21
87.791808
 31
0.0
  0
LINE
  5
141C8
330
14185
100
AcDbEntity
  8
10
  6
Continuous
100
AcDbLine
 10
64.000088
 20
93.561826
 30
0.0
 11
47.110242
 21
99.431264
 31
0.0
  0
ARC
  5
141C9
330
14185
100
AcDbEntity
  8
10
  6
Continuous
100
AcDbCircle
 10
44.06796
 20
90.676817
 30
0.0
 40
25.5
100
AcDbArc
 50
192.635625
 51
347.364375
  0
LINE
  5
141CA
330
14185
100
AcDbEntity
  8
10
  6
Continuous
100
AcDbLine
 10
22.403832
 20
94.793537
 30
0.0
 11
40.457137
 21
101.067291
 31
0.0
  0
LINE
  5
141CB
330
14185
100
AcDbEntity
  8
10
  6
Continuous
100
AcDbLine
 10
41.025678
 20
99.431264
 30
0.0
 11
24.135832
 21
93.561826
 31
0.0
  0
LINE
  5
141CC
330
14185
100
AcDbEntity
  8
10
  6
Continuous
100
AcDbLine
 10
40.457137
 20
80.286343
 30
0.0
 11
22.403832
 21
86.560097
 31
0.0
  0
LINE
  5
141CD
330
14185
100
AcDbEntity
  8
10
  6
Continuous
100
AcDbLine
 10
24.135832
 20
87.791808
 30
0.0
 11
41.025678
 21
81.92237
 31
0.0
  0
LINE
  5
141CE
330
14185
100
AcDbEntity
  8
10
  6
Continuous
100
AcDbLine
 10
21.06796
 20
94.426817
 30
0.0
 11
15.250647
 21
94.426817
 31
0.0
  0
ARC
  5
141CF
330
14185
100
AcDbEntity
  8
10
  6
Continuous
100
AcDbCircle
 10
15.250647
 20
93.926817
 30
0.0
 40
0.5
100
AcDbArc
 50
90.0
 51
173.565404
  0
ARC
  5
141D0
330
14185
100
AcDbEntity
  8
10
  6
Continuous
100
AcDbCircle
 10
21.06796
 20
87.426817
 30
0.0
 40
0.5
100
AcDbArc
 50
270.0
 51
0.0
  0
ARC
  5
141D1
330
14185
100
AcDbEntity
  8
10
  6
Continuous
100
AcDbCircle
 10
20.649217
 20
85.426817
 30
0.0
 40
1.5
100
AcDbArc
 50
90.0
 51
192.635625
  0
LINE
  5
141D2
330
14185
100
AcDbEntity
  8
10
  6
Continuous
100
AcDbLine
 10
22.06796
 20
87.032392
 30
0.0
 11
22.06796
 21
94.321242
 31
0.0
  0
LINE
  5
141D3
330
14185
100
AcDbEntity
  8
10
  6
Continuous
100
AcDbLine
 10
22.226902
 20
86.789849
 30
0.0
 11
23.79996
 21
87.908527
 31
0.0
  0
LINE
  5
141D4
330
14185
100
AcDbEntity
  8
10
  6
Continuous
100
AcDbLine
 10
21.06796
 20
86.926817
 30
0.0
 11
20.649217
 21
86.926817
 31
0.0
  0
ARC
  5
141D5
330
14185
100
AcDbEntity
  8
10
  6
Continuous
100
AcDbCircle
 10
22.56796
 20
87.032392
 30
0.0
 40
0.5
100
AcDbArc
 50
180.0
 51
250.837005999999
  0
LINE
  5
141D6
330
14185
100
AcDbEntity
  8
10
  6
Continuous
100
AcDbLine
 10
22.226902
 20
94.563785
 30
0.0
 11
23.79996
 21
93.445107
 31
0.0
  0
ARC
  5
141D7
330
14185
100
AcDbEntity
  8
10
  6
Continuous
100
AcDbCircle
 10
21.06796
 20
93.926817
 30
0.0
 40
0.5
100
AcDbArc
 50
0.0
 51
90.0
  0
LINE
  5
141D8
330
14185
100
AcDbEntity
  8
10
  6
Continuous
100
AcDbLine
 10
22.06796
 20
92.276817
 30
0.0
 11
21.56796
 21
92.276817
 31
0.0
  0
LINE
  5
141D9
330
14185
100
AcDbEntity
  8
10
  6
Continuous
100
AcDbLine
 10
21.56796
 20
89.076817
 30
0.0
 11
22.06796
 21
89.076817
 31
0.0
  0
LINE
  5
141DA
330
14185
100
AcDbEntity
  8
10
  6
Continuous
100
AcDbLine
 10
21.56796
 20
93.926817
 30
0.0
 11
21.56796
 21
87.426817
 31
0.0
  0
ARC
  5
141DB
330
14185
100
AcDbEntity
  8
10
  6
Continuous
100
AcDbCircle
 10
22.56796
 20
94.321242
 30
0.0
 40
0.5
100
AcDbArc
 50
109.162994000001
 51
180.0
  0
ARC
  5
141DC
330
14185
100
AcDbEntity
  8
10
  6
Continuous
100
AcDbCircle
 10
24.29996
 20
88.264102
 30
0.0
 40
0.5
100
AcDbArc
 50
180.0
 51
250.837005999999
  0
LINE
  5
141DD
330
14185
100
AcDbEntity
  8
10
  6
Continuous
100
AcDbLine
 10
23.79996
 20
93.089532
 30
0.0
 11
23.79996
 21
88.264102
 31
0.0
  0
ARC
  5
141DE
330
14185
100
AcDbEntity
  8
10
  6
Continuous
100
AcDbCircle
 10
24.29996
 20
93.089532
 30
0.0
 40
0.5
100
AcDbArc
 50
109.162994000001
 51
180.0
  0
ARC
  5
141DF
330
14185
100
AcDbEntity
  8
10
  6
Continuous
100
AcDbCircle
 10
44.06796
 20
90.676817
 30
0.0
 40
11.0
100
AcDbArc
 50
250.837005999999
 51
289.162994000001
  0
ARC
  5
141E0
330
14185
100
AcDbEntity
  8
10
  6
Continuous
100
AcDbCircle
 10
44.06796
 20
90.676817
 30
0.0
 40
9.268
100
AcDbArc
 50
250.837005999999
 51
289.162994000001
  0
ARC
  5
141E1
330
14185
100
AcDbEntity
  8
10
  6
Continuous
100
AcDbCircle
 10
44.06796
 20
90.676817
 30
0.0
 40
11.0
100
AcDbArc
 50
70.837005999999
 51
109.162994000001
  0
ARC
  5
141E2
330
14185
100
AcDbEntity
  8
10
  6
Continuous
100
AcDbCircle
 10
44.06796
 20
90.676817
 30
0.0
 40
9.268
100
AcDbArc
 50
70.837005999999
 51
109.162994000001
  0
LINE
  5
141E3
330
14185
100
AcDbEntity
  8
10
  6
Continuous
100
AcDbLine
 10
67.06796
 20
94.426817
 30
0.0
 11
72.885272
 21
94.426817
 31
0.0
  0
ARC
  5
141E4
330
14185
100
AcDbEntity
  8
10
  6
Continuous
100
AcDbCircle
 10
67.06796
 20
87.426817
 30
0.0
 40
0.5
100
AcDbArc
 50
180.0
 51
270.0
  0
LINE
  5
141E5
330
14185
100
AcDbEntity
  8
10
  6
Continuous
100
AcDbLine
 10
65.909017
 20
86.789849
 30
0.0
 11
64.33596
 21
87.908527
 31
0.0
  0
LINE
  5
141E6
330
14185
100
AcDbEntity
  8
10
  6
Continuous
100
AcDbLine
 10
66.06796
 20
94.321242
 30
0.0
 11
66.06796
 21
87.032392
 31
0.0
  0
ARC
  5
141E7
330
14185
100
AcDbEntity
  8
10
  6
Continuous
100
AcDbCircle
 10
67.486702
 20
85.426817
 30
0.0
 40
1.5
100
AcDbArc
 50
347.364375
 51
90.0
  0
ARC
  5
141E8
330
14185
100
AcDbEntity
  8
10
  6
Continuous
100
AcDbCircle
 10
65.56796
 20
87.032392
 30
0.0
 40
0.5
100
AcDbArc
 50
289.162994000001
 51
0.0
  0
LINE
  5
141E9
330
14185
100
AcDbEntity
  8
10
  6
Continuous
100
AcDbLine
 10
67.486702
 20
86.926817
 30
0.0
 11
67.06796
 21
86.926817
 31
0.0
  0
LINE
  5
141EA
330
14185
100
AcDbEntity
  8
10
  6
Continuous
100
AcDbLine
 10
66.56796
 20
92.276817
 30
0.0
 11
66.06796
 21
92.276817
 31
0.0
  0
ARC
  5
141EB
330
14185
100
AcDbEntity
  8
10
  6
Continuous
100
AcDbCircle
 10
65.56796
 20
94.321242
 30
0.0
 40
0.5
100
AcDbArc
 50
0.0
 51
70.837005999999
  0
LINE
  5
141EC
330
14185
100
AcDbEntity
  8
10
  6
Continuous
100
AcDbLine
 10
65.909017
 20
94.563785
 30
0.0
 11
64.33596
 21
93.445107
 31
0.0
  0
ARC
  5
141ED
330
14185
100
AcDbEntity
  8
10
  6
Continuous
100
AcDbCircle
 10
63.83596
 20
93.089532
 30
0.0
 40
0.5
100
AcDbArc
 50
0.0
 51
70.837005999999
  0
LINE
  5
141EE
330
14185
100
AcDbEntity
  8
10
  6
Continuous
100
AcDbLine
 10
64.33596
 20
88.264102
 30
0.0
 11
64.33596
 21
93.089532
 31
0.0
  0
ARC
  5
141EF
330
14185
100
AcDbEntity
  8
10
  6
Continuous
100
AcDbCircle
 10
63.83596
 20
88.264102
 30
0.0
 40
0.5
100
AcDbArc
 50
289.162994000001
 51
0.0
  0
ARC
  5
141F0
330
14185
100
AcDbEntity
  8
10
  6
Continuous
100
AcDbCircle
 10
67.06796
 20
93.926817
 30
0.0
 40
0.5
100
AcDbArc
 50
90.0
 51
180.0
  0
LINE
  5
141F1
330
14185
100
AcDbEntity
  8
10
  6
Continuous
100
AcDbLine
 10
66.56796
 20
87.426817
 30
0.0
 11
66.56796
 21
93.926817
 31
0.0
  0
ARC
  5
141F2
330
14185
100
AcDbEntity
  8
10
  6
Continuous
100
AcDbCircle
 10
72.885272
 20
93.926817
 30
0.0
 40
0.5
100
AcDbArc
 50
6.434596
 51
90.0
  0
LINE
  5
141F3
330
14185
100
AcDbEntity
  8
10
  6
Continuous
100
AcDbLine
 10
213.542401
 20
57.676817
 30
0.0
 11
213.542401
 21
123.676817
 31
0.0
  0
LINE
  5
141F4
330
14185
100
AcDbEntity
  8
10
  6
Continuous
100
AcDbLine
 10
203.542401
 20
128.176817
 30
0.0
 11
203.542401
 21
53.176817
 31
0.0
  0
LINE
  5
141F5
330
14185
100
AcDbEntity
  8
10
  6
Continuous
100
AcDbLine
 10
153.542401
 20
128.176817
 30
0.0
 11
153.542401
 21
53.176817
 31
0.0
  0
LINE
  5
141F6
330
14185
100
AcDbEntity
  8
10
  6
Continuous
100
AcDbLine
 10
143.542401
 20
57.676817
 30
0.0
 11
143.542401
 21
123.676817
 31
0.0
  0
DIMENSION
  5
141F7
330
14185
100
AcDbEntity
  8
6
100
AcDbDimension
280
     0
  2
*D113
 10
228.542401
 20
128.176817
 30
0.0
 11
225.539623222222
 21
90.676817
 31
0.0
 70
    33
 71
     5
 42
-1.0
 73
     0
 74
     0
 75
     0
  3
CIRCLE-NORMAL
100
AcDbAlignedDimension
 13
203.542401
 23
53.176817
 33
0.0
 14
203.542401
 24
128.176817
 34
0.0
  0
DIMENSION
  5
14204
330
14185
100
AcDbEntity
  8
6
100
AcDbDimension
280
     0
  2
*D114
 10
128.542401
 20
128.176817
 30
0.0
 11
125.539623222222
 21
90.676817
 31
0.0
 70
    33
 71
     5
 42
-1.0
 73
     0
 74
     0
 75
     0
  3
CIRCLE-NORMAL
100
AcDbAlignedDimension
 13
153.542401
 23
53.176817
 33
0.0
 14
153.542401
 24
128.176817
 34
0.0
  0
TEXT
  5
14211
330
14185
100
AcDbEntity
  8
6
100
AcDbText
 10
173.286116075444
 20
0.0
 30
0.0
 40
4.0
  1
取付扉厚
 41
0.661764705882
  7
FX_FONT
 72
     5
 11
185.286116075444
 21
0.0
 31
0.0
100
AcDbText
  0
ARC
  5
14212
330
14185
100
AcDbEntity
  8
10
  6
Continuous
100
AcDbCircle
 10
153.542401
 20
70.176817
 30
0.0
 40
17.0
100
AcDbArc
 50
236.789787
 51
270.0
  0
ARC
  5
14213
330
14185
100
AcDbEntity
  8
10
  6
Continuous
100
AcDbCircle
 10
146.042401
 20
57.676817
 30
0.0
 40
2.5
100
AcDbArc
 50
180.0
 51
223.577374999999
  0
ARC
  5
14214
330
14185
100
AcDbEntity
  8
10
  6
Continuous
100
AcDbCircle
 10
211.042401
 20
57.676817
 30
0.0
 40
2.5
100
AcDbArc
 50
316.422625000001
 51
0.0
  0
ARC
  5
14215
330
14185
100
AcDbEntity
  8
10
  6
Continuous
100
AcDbCircle
 10
203.542401
 20
70.176817
 30
0.0
 40
17.0
100
AcDbArc
 50
270.0
 51
303.210213
  0
DIMENSION
  5
14216
330
14185
100
AcDbEntity
  8
6
100
AcDbDimension
280
     0
  2
*D115
 10
203.542401
 20
6.194455
 30
0.0
 11
208.542401
 21
9.194455
 31
0.0
 70
    33
 71
     5
 42
-1.0
 73
     0
 74
     0
 75
     0
  3
GEN-ISO
100
AcDbAlignedDimension
 13
213.542401
 23
57.676817
 33
0.0
 14
203.542401
 24
57.676817
 34
0.0
  0
LINE
  5
14223
330
14185
100
AcDbEntity
  8
7
100
AcDbLine
 10
131.458976
 20
90.676817
 30
0.0
 11
215.719661
 21
90.676817
 31
0.0
  0
ARC
  5
14224
330
14185
100
AcDbEntity
  8
10
  6
Continuous
100
AcDbCircle
 10
153.542401
 20
111.176817
 30
0.0
 40
17.0
100
AcDbArc
 50
90.0
 51
123.210213
  0
ARC
  5
14225
330
14185
100
AcDbEntity
  8
10
  6
Continuous
100
AcDbCircle
 10
146.042401
 20
123.676817
 30
0.0
 40
2.5
100
AcDbArc
 50
136.422625000001
 51
180.0
  0
LINE
  5
14226
330
14185
100
AcDbEntity
  8
10
  6
Continuous
100
AcDbLine
 10
203.542401
 20
95.191031
 30
0.0
 11
202.485295
 21
94.133924
 31
0.0
  0
LINE
  5
14227
330
14185
100
AcDbEntity
  8
10
  6
Continuous
100
AcDbLine
 10
158.642401
 20
94.176817
 30
0.0
 11
158.642401
 21
102.776817
 31
0.0
  0
LINE
  5
1422A
330
14185
100
AcDbEntity
  8
5
  6
Continuous
100
AcDbLine
 10
202.485295
 20
88.626817
 30
0.0
 11
192.042401
 21
88.626817
 31
0.0
  0
LINE
  5
1422B
330
14185
100
AcDbEntity
  8
5
  6
Continuous
100
AcDbLine
 10
192.042401
 20
92.726817
 30
0.0
 11
202.485295
 21
92.726817
 31
0.0
  0
LINE
  5
1422C
330
14185
100
AcDbEntity
  8
10
  6
Continuous
100
AcDbLine
 10
158.642401
 20
78.576817
 30
0.0
 11
158.642401
 21
87.176817
 31
0.0
  0
LINE
  5
1422D
330
14185
100
AcDbEntity
  8
10
  6
Continuous
100
AcDbLine
 10
153.542401
 20
76.976817
 30
0.0
 11
157.042401
 21
76.976817
 31
0.0
  0
ARC
  5
1422E
330
14185
100
AcDbEntity
  8
10
  6
Continuous
100
AcDbCircle
 10
157.042401
 20
78.576817
 30
0.0
 40
1.6
100
AcDbArc
 50
270.0
 51
0.0
  0
LINE
  5
1422F
330
14185
100
AcDbEntity
  8
10
  6
Continuous
100
AcDbLine
 10
202.485295
 20
94.133924
 30
0.0
 11
202.485295
 21
87.21971
 31
0.0
  0
LINE
  5
14230
330
14185
100
AcDbEntity
  8
10
  6
Continuous
100
AcDbLine
 10
202.485295
 20
87.21971
 30
0.0
 11
203.542401
 21
86.162603
 31
0.0
  0
LINE
  5
14231
330
14185
100
AcDbEntity
  8
10
  6
Continuous
100
AcDbLine
 10
192.042401
 20
87.176817
 30
0.0
 11
192.042401
 21
94.176817
 31
0.0
  0
LINE
  5
14232
330
14185
100
AcDbEntity
  8
10
  6
Continuous
100
AcDbLine
 10
153.542401
 20
87.176817
 30
0.0
 11
192.042401
 21
87.176817
 31
0.0
  0
ARC
  5
14233
330
14185
100
AcDbEntity
  8
10
  6
Continuous
100
AcDbCircle
 10
157.042401
 20
102.776817
 30
0.0
 40
1.6
100
AcDbArc
 50
0.0
 51
90.0
  0
LINE
  5
14234
330
14185
100
AcDbEntity
  8
10
  6
Continuous
100
AcDbLine
 10
157.042401
 20
104.376817
 30
0.0
 11
153.542401
 21
104.376817
 31
0.0
  0
LINE
  5
14235
330
14185
100
AcDbEntity
  8
7
100
AcDbLine
 10
178.542401
 20
164.014278
 30
0.0
 11
178.542401
 21
22.841102265361
 31
0.0
  0
ARC
  5
14236
330
14185
100
AcDbEntity
  8
10
  6
Continuous
100
AcDbCircle
 10
203.542401
 20
111.176817
 30
0.0
 40
17.0
100
AcDbArc
 50
56.789787
 51
90.0
  0
ARC
  5
14237
330
14185
100
AcDbEntity
  8
10
  6
Continuous
100
AcDbCircle
 10
211.042401
 20
123.676817
 30
0.0
 40
2.5
100
AcDbArc
 50
0.0
 51
43.577374999999
  0
LINE
  5
14238
330
14185
100
AcDbEntity
  8
10
  6
Continuous
100
AcDbLine
 10
198.442401
 20
102.776817
 30
0.0
 11
198.442401
 21
93.176817
 31
0.0
  0
LINE
  5
14239
330
14185
100
AcDbEntity
  8
10
  6
Continuous
100
AcDbLine
 10
198.442401
 20
85.17137
 30
0.0
 11
158.642401
 21
85.17137
 31
0.0
  0
LINE
  5
1423A
330
14185
100
AcDbEntity
  8
10
  6
Continuous
100
AcDbLine
 10
158.642401
 20
84.181626
 30
0.0
 11
198.442401
 21
84.181626
 31
0.0
  0
LINE
  5
1423B
330
14185
100
AcDbEntity
  8
10
  6
Continuous
100
AcDbLine
 10
198.442401
 20
80.176817
 30
0.0
 11
158.642401
 21
80.176817
 31
0.0
  0
LINE
  5
1423C
330
14185
100
AcDbEntity
  8
10
  6
Continuous
100
AcDbLine
 10
198.442401
 20
88.176817
 30
0.0
 11
198.442401
 21
78.576817
 31
0.0
  0
LINE
  5
1423D
330
14185
100
AcDbEntity
  8
10
  6
Continuous
100
AcDbLine
 10
200.042401
 20
76.976817
 30
0.0
 11
203.542401
 21
76.976817
 31
0.0
  0
ARC
  5
1423E
330
14185
100
AcDbEntity
  8
10
  6
Continuous
100
AcDbCircle
 10
200.042401
 20
78.576817
 30
0.0
 40
1.6
100
AcDbArc
 50
180.0
 51
270.0
  0
LINE
  5
1423F
330
14185
100
AcDbEntity
  8
10
  6
Continuous
100
AcDbLine
 10
203.542401
 20
104.376817
 30
0.0
 11
200.042401
 21
104.376817
 31
0.0
  0
ARC
  5
14240
330
14185
100
AcDbEntity
  8
10
  6
Continuous
100
AcDbCircle
 10
200.042401
 20
102.776817
 30
0.0
 40
1.6
100
AcDbArc
 50
90.0
 51
180.0
  0
HATCH
  5
14241
102
{ACAD_XDICTIONARY
360
14242
102
}
330
14185
100
AcDbEntity
  8
8
100
AcDbHatch
 10
0.0
 20
0.0
 30
0.0
210
0.0
220
0.0
230
1.0
  2
_USER
 70
     0
 71
     1
 91
       32
 92
        7
 72
     1
 73
     1
 93
       10
 10
338.994851657215
 20
95.05864138999357
 42
0.0
 10
339.757714
 20
94.79353700000001
 42
0.0
 10
339.7577133138205
 20
94.79353629024962
 42
-0.3193186334445967
 10
340.093585
 20
94.32124199999998
 42
0.0
 10
340.093585
 20
92.276817
 42
0.0
 10
340.593585
 20
92.276817
 42
0.0
 10
340.593585
 20
93.92681699999997
 42
-0.414213562373095
 10
341.093585
 20
94.42681699999997
 42
0.0
 10
343.093585
 20
94.42681699999997
 42
0.0
 10
343.093585
 20
96.67681700000003
 42
0.1902542669838174
 97
        9
330
14268
330
1427A
330
14270
330
14278
330
1427B
330
1427C
330
1426D
330
1429A
330
1429B
 92
        7
 72
     1
 73
     1
 93
       11
 10
337.86394050075
 20
93.61804436480276
 42
0.0
 10
338.0257139999999
 20
93.561826
 42
0.0
 10
338.0257133138205
 20
93.56182629024966
 42
-0.3193186334445967
 10
338.3615849999999
 20
93.08953200000002
 42
0.0
 10
338.3615849999999
 20
90.67681700000003
 42
0.0
 10
340.093585
 20
90.67681700000003
 42
0.0
 10
340.093585
 20
92.276817
 42
0.0
 10
340.093585
 20
94.32124199999998
 42
0.3193186334445967
 10
339.7577133138205
 20
94.79353629024962
 42
0.0
 10
339.757714
 20
94.79353700000001
 42
0.0
 10
338.994851657215
 20
95.05864138999357
 42
0.07676086453429
 97
        8
330
14267
330
14276
330
14277
330
1424E
330
14270
330
1427A
330
14268
330
1429B
 92
        7
 72
     1
 73
     1
 93
        6
 10
338.0257139999999
 20
93.561826
 42
0.0
 10
337.86394050075
 20
93.61804436480276
 42
0.1287861147274971
 10
337.093585
 20
90.67681700000003
 42
0.0
 10
338.3615849999999
 20
90.67681700000003
 42
0.0
 10
338.3615849999999
 20
93.08953200000002
 42
0.3193186334445967
 10
338.0257133138205
 20
93.56182629024966
 42
0.0
 97
        5
330
14267
330
1429B
330
1424E
330
14277
330
14276
 92
        7
 72
     1
 73
     1
 93
        6
 10
340.593585
 20
93.92681699999997
 42
0.0
 10
340.593585
 20
92.276817
 42
0.0
 10
340.593585
 20
90.67681700000003
 42
0.0
 10
343.093585
 20
90.67681700000003
 42
0.0
 10
343.093585
 20
94.42681699999997
 42
0.0
 10
341.093585
 20
94.42681699999997
 42
0.414213562373095
 97
        5
330
1427B
330
1424E
330
1429A
330
1426D
330
1427C
 92
        7
 72
     0
 73
     1
 93
        4
 10
340.593585
 20
92.276817
 10
340.093585
 20
92.276817
 10
340.093585
 20
90.67681700000003
 10
340.593585
 20
90.67681700000003
 97
        4
330
14278
330
14270
330
1424E
330
1427B
 92
        7
 72
     1
 73
     1
 93
        8
 10
348.4935849999999
 20
90.67681700000003
 42
0.0237304383397469
 10
348.3567849999999
 20
93.55756790210872
 42
0.2740682212535028
 10
343.093585
 20
96.67681700000003
 42
0.0
 10
343.093585
 20
94.42681699999997
 42
0.0
 10
346.910898
 20
94.42681699999997
 42
-0.3816899119301482
 10
347.4077482157455
 20
93.9828514814696
 42
0.0
 10
347.4077477289892
 20
93.98285140670774
 42
-0.0280836011396331
 10
347.593585
 20
90.67681700000001
 42
0.0
 97
        7
330
1424C
330
1429B
330
1429A
330
1426D
330
1427D
330
1424D
330
1424E
 92
        7
 72
     1
 73
     1
 93
        6
 10
347.4077482157455
 20
93.9828514814696
 42
0.3816899119301482
 10
346.910898
 20
94.42681699999997
 42
0.0
 10
343.093585
 20
94.42681699999997
 42
0.0
 10
343.093585
 20
90.67681700000003
 42
0.0
 10
347.593585
 20
90.67681700000003
 42
0.0280836011396331
 10
347.4077477289892
 20
93.98285140670774
 42
0.0
 97
        5
330
1427D
330
1426D
330
1429A
330
1424E
330
1424D
 92
        7
 72
     1
 73
     1
 93
        3
 10
349.093585
 20
90.67681700000003
 42
0.1146809888924601
 10
348.478585
 20
93.32290373327238
 42
-0.0217199509342918
 10
348.593585
 20
90.67681700000003
 42
0.0
 97
        3
330
1429B
330
1424B
330
1424E
 92
        7
 72
     1
 73
     1
 93
        6
 10
338.0257133138205
 20
87.79180770975034
 42
0.3193186334445968
 10
338.3615849999999
 20
88.26410199999998
 42
0.0
 10
338.3615849999999
 20
90.67681700000003
 42
0.0
 10
337.093585
 20
90.67681700000003
 42
0.1287861147274987
 10
337.86394050075
 20
87.73558963519726
 42
0.0
 10
338.0257139999999
 20
87.791808
 42
0.0
 97
        5
330
14275
330
14277
330
1424E
330
1429B
330
14269
 92
        7
 72
     1
 73
     1
 93
       11
 10
340.093585
 20
87.03239200000002
 42
0.0
 10
340.093585
 20
89.076817
 42
0.0
 10
340.093585
 20
90.67681700000003
 42
0.0
 10
338.3615849999999
 20
90.67681700000003
 42
0.0
 10
338.3615849999999
 20
88.26410199999998
 42
-0.3193186334445968
 10
338.0257133138205
 20
87.79180770975034
 42
0.0
 10
338.0257139999999
 20
87.791808
 42
0.0
 10
337.86394050075
 20
87.73558963519726
 42
0.0767608645342896
 10
338.994851657215
 20
86.29499261000646
 42
0.0
 10
339.757714
 20
86.56009699999998
 42
0.0
 10
339.7577133138205
 20
86.56009770975038
 42
0.3193186334445968
 97
        8
330
14270
330
1424E
330
14277
330
14275
330
14269
330
1429B
330
1426A
330
14272
 92
        7
 72
     1
 73
     1
 93
        8
 10
341.093585
 20
86.92681700000003
 42
0.0
 10
341.512328
 20
86.92681700000003
 42
-0.414213562373095
 10
343.012328
 20
85.42681700000003
 42
0.0
 10
343.093585
 20
85.42681700000003
 42
0.0
 10
343.093585
 20
90.67681700000003
 42
0.0
 10
340.593585
 20
90.67681700000003
 42
0.0
 10
340.593585
 20
89.076817
 42
0.0
 10
340.593585
 20
87.42681700000003
 42
0.414213562373095
 97
        6
330
14273
330
1426E
330
1429A
330
1424E
330
1427B
330
14271
 92
        7
 72
     1
 73
     1
 93
       13
 10
340.593585
 20
89.076817
 42
0.0
 10
340.093585
 20
89.076817
 42
0.0
 10
340.093585
 20
87.03239200000002
 42
-0.3193186334445968
 10
339.7577133138205
 20
86.56009770975038
 42
0.0
 10
339.757714
 20
86.56009699999998
 42
0.0
 10
338.994851657215
 20
86.29499261000645
 42
0.1809852371013686
 10
342.878585
 20
84.68067032067339
 42
0.004208134512461
 10
342.9759989089248
 20
85.09869204039724
 42
0.0
 10
342.9759994064074
 20
85.09869200237634
 42
0.0551892454187815
 10
343.012328
 20
85.42681700000003
 42
0.414213562373095
 10
341.512328
 20
86.92681700000003
 42
0.0
 10
341.093585
 20
86.92681700000003
 42
-0.414213562373095
 10
340.593585
 20
87.42681700000003
 42
0.0
 97
       10
330
14279
330
14270
330
14272
330
1426A
330
1429B
330
14252
330
1426E
330
14273
330
14271
330
1427B
 92
        7
 72
     0
 73
     1
 93
        4
 10
340.093585
 20
89.076817
 10
340.593585
 20
89.076817
 10
340.593585
 20
90.67681700000003
 10
340.093585
 20
90.67681700000003
 97
        4
330
14279
330
1427B
330
1424E
330
14270
 92
        7
 72
     1
 73
     1
 93
        5
 10
347.593585
 20
90.67681700000003
 42
0.0
 10
343.093585
 20
90.67681700000003
 42
0.0
 10
343.093585
 20
85.42681700000003
 42
0.0
 10
343.093585
 20
84.67681700000003
 42
0.1954073690835731
 10
347.278585
 20
86.37730830713755
 42
0.0365830669761837
 97
        4
330
1424E
330
1429A
330
1429B
330
1424D
 92
        7
 72
     1
 73
     1
 93
        4
 10
348.4935849999999
 20
90.67681700000003
 42
0.0
 10
347.593585
 20
90.67681700000003
 42
-0.0365830669761837
 10
347.278585
 20
86.37730830713754
 42
0.0746623155869653
 10
348.3567849999999
 20
87.79606609789133
 42
0.023730438339747
 97
        4
330
1424E
330
1424D
330
1429B
330
1424C
 92
        7
 72
     1
 73
     1
 93
        3
 10
349.093585
 20
90.67681700000003
 42
0.0
 10
348.593585
 20
90.67681700000003
 42
-0.0217199509342918
 10
348.478585
 20
88.03073026672766
 42
0.11468098889246
 97
        3
330
1424E
330
1424B
330
1429B
 92
        7
 72
     1
 73
     1
 93
        5
 10
307.9384605126403
 20
98.79306284683267
 42
-0.2279618544222786
 10
318.093585
 20
103.676817
 42
0.0
 10
318.093585
 20
105.676817
 42
0.2773077316548406
 10
304.8498108904828
 20
97.71971749170675
 42
0.0
 10
307.9384605666528
 20
98.79306269140675
 42
0.0
 97
        4
330
1424F
330
14245
330
1429C
330
14255
 92
        7
 72
     1
 73
     1
 93
        6
 10
307.9384605666528
 20
98.79306269140675
 42
0.0
 10
314.482762
 20
101.067291
 42
0.0
 10
314.4827620959459
 20
101.0672913854917
 42
-0.0838097406608967
 10
318.093585
 20
101.676817
 42
0.0
 10
318.093585
 20
103.676817
 42
0.2279618544222786
 10
307.9384605126403
 20
98.79306284683267
 42
0.0
 97
        4
330
14255
330
1427F
330
14245
330
1424F
 92
        7
 72
     1
 73
     1
 93
        9
 10
314.482762
 20
101.067291
 42
0.0
 10
307.9384605666528
 20
98.79306269140675
 42
0.0
 10
304.8498108904828
 20
97.71971749170675
 42
0.0393165860459713
 10
303.9105948953316
 20
95.55972511820981
 42
0.0
 10
315.051303
 20
99.431264
 42
0.0
 10
315.0513025750206
 20
99.43126396406701
 42
-0.0838097406608959
 10
318.093585
 20
99.94481700000003
 42
0.0
 10
318.093585
 20
101.676817
 42
0.0838097406608967
 10
314.4827620959459
 20
101.0672913854917
 42
0.0
 97
        6
330
14255
330
1429C
330
14251
330
1427E
330
14245
330
1427F
 92
        7
 72
     1
 73
     1
 93
        6
 10
315.051303
 20
99.431264
 42
0.0
 10
303.9105948953316
 20
95.55972511820981
 42
0.0830826910998097
 10
303.093585
 20
90.67681700000003
 42
0.0
 10
318.093585
 20
90.67681700000003
 42
0.0
 10
318.093585
 20
99.94481700000003
 42
0.0838097406608959
 10
315.0513025750206
 20
99.43126396406701
 42
0.0
 97
        5
330
14251
330
1429C
330
1424E
330
14245
330
1427E
 92
        7
 72
     1
 73
     1
 93
        6
 10
321.1358674249793
 20
99.43126396406701
 42
0.0838097406608959
 10
318.093585
 20
99.94481700000003
 42
0.0
 10
318.093585
 20
90.67681700000003
 42
0.0
 10
333.093585
 20
90.67681700000003
 42
0.0830826981058227
 10
332.2765749687675
 20
95.55972551294987
 42
0.0
 10
321.135868
 20
99.431264
 42
0.0
 97
        5
330
1427E
330
14245
330
1424E
330
1429C
330
14267
 92
        7
 72
     1
 73
     1
 93
        9
 10
318.093585
 20
99.94481700000003
 42
-0.0838097406608959
 10
321.1358674249793
 20
99.43126396406701
 42
0.0
 10
321.135868
 20
99.431264
 42
0.0
 10
332.2765749687675
 20
95.55972551294987
 42
0.0393165833776454
 10
331.3373589885546
 20
97.71971771916995
 42
0.0
 10
328.2487094724073
 20
98.79306280380581
 42
0.0
 10
321.7044079999999
 20
101.067291
 42
0.0
 10
321.7044079040541
 20
101.0672913854917
 42
0.0838097406608967
 10
318.093585
 20
101.676817
 42
0.0
 97
        6
330
1427E
330
14267
330
1429C
330
14268
330
1427F
330
14245
 92
        7
 72
     1
 73
     1
 93
        6
 10
328.2487094873596
 20
98.79306284683267
 42
0.2279618544222786
 10
318.093585
 20
103.676817
 42
0.0
 10
318.093585
 20
101.676817
 42
-0.0838097406608967
 10
321.7044079040541
 20
101.0672913854917
 42
0.0
 10
321.7044079999999
 20
101.067291
 42
0.0
 10
328.2487094724073
 20
98.79306280380581
 42
0.0
 97
        4
330
1424F
330
14245
330
1427F
330
14268
 92
        7
 72
     1
 73
     1
 93
        5
 10
318.093585
 20
103.676817
 42
-0.2279618544222786
 10
328.2487094873596
 20
98.79306284683267
 42
0.0
 10
328.2487094724073
 20
98.79306280380581
 42
0.0
 10
331.3373589885546
 20
97.71971771916995
 42
0.2773077270308748
 10
318.093585
 20
105.676817
 42
0.0
 97
        4
330
1424F
330
14268
330
1429C
330
14245
 92
        7
 72
     1
 73
     1
 93
        6
 10
333.093585
 20
90.67681700000003
 42
0.0
 10
318.093585
 20
90.67681700000003
 42
0.0
 10
318.093585
 20
81.40881700000003
 42
0.0838097406608958
 10
321.1358674249793
 20
81.92237003593304
 42
0.0
 10
321.135868
 20
81.92237
 42
0.0
 10
332.2765749687675
 20
85.79390848705012
 42
0.0830826981058238
 97
        5
330
1424E
330
14245
330
1426B
330
14269
330
1429C
 92
        7
 72
     1
 73
     1
 93
        6
 10
315.0513025750206
 20
81.92237003593304
 42
0.083809740660896
 10
318.093585
 20
81.40881700000003
 42
0.0
 10
318.093585
 20
90.67681700000003
 42
0.0
 10
303.093585
 20
90.67681700000003
 42
0.083082691099811
 10
303.9105948953316
 20
85.79390888179017
 42
0.0
 10
315.051303
 20
81.92237
 42
0.0
 97
        5
330
1426B
330
14245
330
1424E
330
1429C
330
14253
 92
        7
 72
     1
 73
     1
 93
        9
 10
321.7044079999999
 20
80.28634299999999
 42
0.0
 10
328.2487095381808
 20
82.56057121905128
 42
0.0
 10
331.3373589885545
 20
83.63391628083
 42
0.0393165833776463
 10
332.2765749687675
 20
85.79390848705012
 42
0.0
 10
321.135868
 20
81.92237
 42
0.0
 10
321.1358674249793
 20
81.92237003593304
 42
-0.0838097406608958
 10
318.093585
 20
81.40881700000003
 42
0.0
 10
318.093585
 20
79.67681700000003
 42
0.0838097406608967
 10
321.7044079040541
 20
80.28634261450836
 42
0.0
 97
        6
330
1426A
330
1429C
330
14269
330
1426B
330
14245
330
1426C
 92
        7
 72
     1
 73
     1
 93
        9
 10
314.4827620959459
 20
80.28634261450836
 42
0.0838097406608967
 10
318.093585
 20
79.67681700000003
 42
0.0
 10
318.093585
 20
81.40881700000003
 42
-0.083809740660896
 10
315.0513025750206
 20
81.92237003593304
 42
0.0
 10
315.051303
 20
81.92237
 42
0.0
 10
303.9105948953316
 20
85.79390888179017
 42
0.0393165860459722
 10
304.8498108904828
 20
83.6339165082932
 42
0.0
 10
307.9384605008793
 20
82.56057133145036
 42
0.0
 10
314.482762
 20
80.28634299999999
 42
0.0
 97
        6
330
1426C
330
14245
330
1426B
330
14253
330
1429C
330
14254
 92
        7
 72
     1
 73
     1
 93
        6
 10
318.093585
 20
79.67681700000003
 42
-0.0838097406608967
 10
314.4827620959459
 20
80.28634261450836
 42
0.0
 10
314.482762
 20
80.28634299999999
 42
0.0
 10
307.9384605008793
 20
82.56057133145036
 42
0.0
 10
307.9384605126403
 20
82.56057115316739
 42
0.2279618544222786
 10
318.093585
 20
77.67681700000003
 42
0.0
 97
        4
330
1426C
330
14254
330
14250
330
14245
 92
        7
 72
     1
 73
     1
 93
        5
 10
318.093585
 20
77.67681700000003
 42
-0.2279618544222786
 10
307.9384605126403
 20
82.56057115316739
 42
0.0
 10
307.9384605008793
 20
82.56057133145036
 42
0.0
 10
304.8498108904828
 20
83.6339165082932
 42
0.2773077316548383
 10
318.093585
 20
75.67681700000003
 42
0.0
 97
        4
330
14250
330
14254
330
1429C
330
14245
 92
        7
 72
     1
 73
     1
 93
        6
 10
328.2487095381808
 20
82.56057121905128
 42
0.0
 10
321.7044079999999
 20
80.28634299999999
 42
0.0
 10
321.7044079040541
 20
80.28634261450836
 42
-0.0838097406608967
 10
318.093585
 20
79.67681700000003
 42
0.0
 10
318.093585
 20
77.67681700000003
 42
0.2279618544222786
 10
328.2487094873596
 20
82.56057115316739
 42
0.0
 97
        4
330
1426A
330
1426C
330
14245
330
14250
 92
        7
 72
     1
 73
     1
 93
        5
 10
328.2487094873596
 20
82.56057115316739
 42
-0.2279618544222786
 10
318.093585
 20
77.67681700000003
 42
0.0
 10
318.093585
 20
75.67681700000003
 42
0.2773077270308725
 10
331.3373589885545
 20
83.63391628083
 42
0.0
 10
328.2487095381808
 20
82.56057121905128
 42
0.0
 97
        4
330
14250
330
14245
330
1429C
330
1426A
 75
     0
 76
     0
 52
45.0
 41
1.0
 77
     0
 78
     1
 53
45.0
 43
164.9514762497685
 44
89.27426962497253
 45
-0.7071067811865475
 46
0.7071067811865476
 79
     0
 47
0.0
 98
       32
 10
341.4245428129212
 20
95.39371288080278
 10
339.3652227770204
 20
94.45914154487652
 10
337.9631108436886
 20
92.21576245154561
 10
341.3026865394426
 20
91.73139651094007
 10
340.3721940745951
 20
91.48921354063731
 10
344.6771199344668
 20
95.22575079673716
 10
344.9632652269834
 20
92.6764563724975
 10
348.7892391452501
 20
91.10062498174858
 10
337.7887875082191
 20
90.05545142953662
 10
338.9936403531301
 20
90.01190253152778
 10
341.7952861250317
 20
87.81994133174992
 10
341.2436667502532
 20
86.20863210542313
 10
340.4888191847667
 20
89.69254394612969
 10
345.2937142650745
 20
88.31349550918334
 10
348.1389089349848
 20
89.4893157554218
 10
348.7921424051173
 20
89.92480473551012
 10
310.8952903915036
 20
102.4729393469082
 10
311.784043412092
 20
101.4149000366839
 10
306.9170625850603
 20
97.73292323710334
 10
307.8481371780577
 20
94.30487587197663
 10
320.5022873283402
 20
94.34719744438561
 10
322.9992601004695
 20
99.04489198178146
 10
323.3801542521503
 20
101.0763274574121
 10
325.9617701690976
 20
101.9227589055915
 10
326.0040917415065
 20
86.6023496935438
 10
313.9424436049496
 20
85.7135966729554
 10
324.4381935623745
 20
81.77769043892104
 10
312.3765454258177
 20
81.6930472941031
 10
311.6570786948652
 20
80.29643540460704
 10
310.8529688190947
 20
79.11143137715582
 10
321.3063972041107
 20
78.94214508751995
 10
321.5603266385645
 20
77.33392533597902
1001
ACAD
1010
0.0
1020
0.0
1030
0.0
1001
AcadAnnotative
1000
AnnotativeData
1002
{
1070
     1
1070
     0
1002
}
  0
LINE
  5
14245
102
{ACAD_REACTORS
330
14241
102
}
330
14185
100
AcDbEntity
  8
7
100
AcDbLine
 10
318.093585
 20
42.300698
 30
0.0
 11
318.093585
 21
138.400445
 31
0.0
  0
CIRCLE
  5
14246
330
14185
100
AcDbEntity
  8
10
  6
Continuous
100
AcDbCircle
 10
318.093585
 20
90.676817
 30
0.0
 40
37.5
  0
HATCH
  5
14247
102
{ACAD_XDICTIONARY
360
14248
102
}
330
14185
100
AcDbEntity
  8
8
100
AcDbHatch
 10
0.0
 20
0.0
 30
0.0
210
0.0
220
0.0
230
1.0
  2
_USER
 70
     0
 71
     1
 91
       18
 92
        7
 72
     1
 73
     1
 93
        8
 10
288.593585
 20
90.67681700000003
 42
-0.0280836011396336
 10
288.7794222710107
 20
93.98285140670781
 42
0.0
 10
288.7794227842544
 20
93.9828514814696
 42
-0.3816899119301446
 10
289.2762729999999
 20
94.42681699999997
 42
0.0
 10
293.093585
 20
94.42681699999997
 42
0.0
 10
293.093585
 20
96.67681700000003
 42
0.2740682212535034
 10
287.830385
 20
93.55756790210872
 42
0.0237304383397469
 10
287.693585
 20
90.67681700000003
 42
0.0
 97
        7
330
1424D
330
14257
330
14256
330
1429D
330
1429E
330
1424C
330
1424E
 92
        7
 72
     1
 73
     1
 93
        3
 10
287.093585
 20
90.67681700000003
 42
0.0
 10
287.593585
 20
90.67681700000003
 42
-0.0217199509342917
 10
287.708585
 20
93.32290373327238
 42
0.1146809888924601
 97
        3
330
1424E
330
1424B
330
1429E
 92
        7
 72
     1
 73
     1
 93
        4
 10
287.593585
 20
90.67681700000003
 42
0.0
 10
287.693585
 20
90.67681700000003
 42
-0.0237304383397469
 10
287.830385
 20
93.55756790210872
 42
0.0110176219184416
 10
287.708585
 20
93.32290373327238
 42
0.0217199509342917
 97
        4
330
1424E
330
1424C
330
1429E
330
1424B
 92
        7
 72
     1
 73
     1
 93
        6
 10
288.7794222710107
 20
93.98285140670781
 42
0.0280836011396336
 10
288.593585
 20
90.67681700000003
 42
0.0
 10
293.093585
 20
90.67681700000003
 42
0.0
 10
293.093585
 20
94.42681699999997
 42
0.0
 10
289.2762729999999
 20
94.42681699999997
 42
0.3816899119301446
 10
288.7794227842544
 20
93.9828514814696
 42
0.0
 97
        5
330
1424D
330
1424E
330
1429D
330
14256
330
14257
 92
        7
 72
     1
 73
     1
 93
        6
 10
295.593585
 20
93.92681699999997
 42
0.414213562373095
 10
295.093585
 20
94.42681699999997
 42
0.0
 10
293.093585
 20
94.42681699999997
 42
0.0
 10
293.093585
 20
90.67681700000003
 42
0.0
 10
295.593585
 20
90.67681700000003
 42
0.0
 10
295.593585
 20
92.276817
 42
0.0
 97
        5
330
1425E
330
14256
330
1429D
330
1424E
330
14265
 92
        7
 72
     1
 73
     1
 93
       10
 10
296.093585
 20
94.32124199999998
 42
-0.3193186334445323
 10
296.4294566861793
 20
94.79353629024959
 42
0.0
 10
296.429457
 20
94.79353700000001
 42
0.0
 10
297.1923186022178
 20
95.05864114732157
 42
0.190254282321234
 10
293.093585
 20
96.67681700000003
 42
0.0
 10
293.093585
 20
94.42681699999997
 42
0.0
 10
295.093585
 20
94.42681699999997
 42
-0.414213562373095
 10
295.593585
 20
93.92681699999997
 42
0.0
 10
295.593585
 20
92.276817
 42
0.0
 10
296.093585
 20
92.276817
 42
0.0
 97
        9
330
14266
330
14255
330
1429E
330
1429D
330
14256
330
1425E
330
14265
330
14264
330
1425B
 92
        7
 72
     1
 73
     1
 93
       11
 10
297.8255849999999
 20
90.67681700000003
 42
0.0
 10
297.8255849999999
 20
93.08953200000002
 42
-0.3193186334445323
 10
298.1614566861792
 20
93.56182629024963
 42
0.0
 10
298.1614569999999
 20
93.561826
 42
0.0
 10
298.3232296627422
 20
93.61804407410563
 42
0.0767608636239121
 10
297.1923186022178
 20
95.05864114732157
 42
0.0
 10
296.429457
 20
94.79353700000001
 42
0.0
 10
296.4294566861793
 20
94.79353629024959
 42
0.3193186334445323
 10
296.093585
 20
94.32124199999998
 42
0.0
 10
296.093585
 20
92.276817
 42
0.0
 10
296.093585
 20
90.67681700000003
 42
0.0
 97
        8
330
14263
330
14260
330
14251
330
1429E
330
14255
330
14266
330
1425B
330
1424E
 92
        7
 72
     1
 73
     1
 93
        6
 10
297.8255849999999
 20
93.08953200000002
 42
0.0
 10
297.8255849999999
 20
90.67681700000003
 42
0.0
 10
299.093585
 20
90.67681700000003
 42
0.1287861006004092
 10
298.3232296627422
 20
93.61804407410564
 42
0.0
 10
298.1614569999999
 20
93.561826
 42
0.0
 10
298.1614566861792
 20
93.56182629024963
 42
0.3193186334445323
 97
        5
330
14263
330
1424E
330
1429E
330
14251
330
14260
 92
        7
 72
     0
 73
     1
 93
        4
 10
296.093585
 20
92.276817
 10
295.593585
 20
92.276817
 10
295.593585
 20
90.67681700000003
 10
296.093585
 20
90.67681700000003
 97
        4
330
14264
330
14265
330
1424E
330
1425B
 92
        7
 72
     1
 73
     1
 93
        3
 10
287.593585
 20
90.67681700000003
 42
0.0
 10
287.093585
 20
90.67681700000003
 42
0.1146809888924601
 10
287.708585
 20
88.03073026672767
 42
-0.0217199509342917
 97
        3
330
1424E
330
1429E
330
1424B
 92
        7
 72
     1
 73
     1
 93
        4
 10
287.693585
 20
90.67681700000003
 42
0.0
 10
287.593585
 20
90.67681700000003
 42
0.0217199509342917
 10
287.708585
 20
88.03073026672767
 42
0.011017621918441
 10
287.830385
 20
87.79606609789136
 42
-0.0237304383397469
 97
        4
330
1424E
330
1424B
330
1429E
330
1424C
 92
        7
 72
     1
 73
     1
 93
        4
 10
288.593585
 20
90.67681700000003
 42
0.0
 10
287.693585
 20
90.67681700000003
 42
0.0237304383397469
 10
287.830385
 20
87.79606609789136
 42
0.0746623155869658
 10
288.908585
 20
86.37730830713757
 42
-0.0365830669761836
 97
        4
330
1424E
330
1424C
330
1429E
330
1424D
 92
        7
 72
     1
 73
     1
 93
        5
 10
293.093585
 20
90.67681700000003
 42
0.0
 10
288.593585
 20
90.67681700000003
 42
0.0365830669761836
 10
288.908585
 20
86.37730830713757
 42
0.1954073690835737
 10
293.093585
 20
84.67681700000003
 42
0.0
 10
293.093585
 20
85.42681700000003
 42
0.0
 97
        4
330
1424E
330
1424D
330
1429E
330
1429D
 92
        7
 72
     1
 73
     1
 93
        8
 10
293.174843
 20
85.42681700000003
 42
-0.414213562373095
 10
294.674843
 20
86.92681700000003
 42
0.0
 10
295.093585
 20
86.92681700000003
 42
0.414213562373095
 10
295.593585
 20
87.42681700000003
 42
0.0
 10
295.593585
 20
89.076817
 42
0.0
 10
295.593585
 20
90.67681700000003
 42
0.0
 10
293.093585
 20
90.67681700000003
 42
0.0
 10
293.093585
 20
85.42681700000003
 42
0.0
 97
        6
330
14259
330
1425C
330
14258
330
14265
330
1424E
330
1429D
 92
        7
 72
     1
 73
     1
 93
       13
 10
294.674843
 20
86.92681700000003
 42
0.414213562373095
 10
293.174843
 20
85.42681700000003
 42
0.0551892454187815
 10
293.2111715935927
 20
85.09869200237634
 42
0.0
 10
293.2111710910751
 20
85.09869204039724
 42
0.0042081345124611
 10
293.3085849999999
 20
84.68067032067339
 42
0.1809852523878503
 10
297.1923186022178
 20
86.29499285267843
 42
0.0
 10
296.429457
 20
86.56009699999998
 42
0.0
 10
296.4294566861793
 20
86.56009770975041
 42
-0.3193186334445322
 10
296.093585
 20
87.03239200000002
 42
0.0
 10
296.093585
 20
89.076817
 42
0.0
 10
295.593585
 20
89.076817
 42
0.0
 10
295.593585
 20
87.42681700000003
 42
-0.414213562373095
 10
295.093585
 20
86.92681700000003
 42
0.0
 97
       10
330
14259
330
14252
330
1429E
330
14254
330
1425D
330
1425B
330
14261
330
14265
330
14258
330
1425C
 92
        7
 72
     0
 73
     1
 93
        4
 10
295.593585
 20
89.076817
 10
296.093585
 20
89.076817
 10
296.093585
 20
90.67681700000003
 10
295.593585
 20
90.67681700000003
 97
        4
330
14261
330
1425B
330
1424E
330
14265
 92
        7
 72
     1
 73
     1
 93
       11
 10
298.1614566861792
 20
87.79180770975037
 42
-0.3193186334445322
 10
297.8255849999999
 20
88.26410199999998
 42
0.0
 10
297.8255849999999
 20
90.67681700000003
 42
0.0
 10
296.093585
 20
90.67681700000003
 42
0.0
 10
296.093585
 20
89.076817
 42
0.0
 10
296.093585
 20
87.03239200000002
 42
0.3193186334445322
 10
296.4294566861793
 20
86.56009770975041
 42
0.0
 10
296.429457
 20
86.56009699999998
 42
0.0
 10
297.1923186022178
 20
86.29499285267845
 42
0.0767608636239135
 10
298.3232296627422
 20
87.73558992589439
 42
0.0
 10
298.1614569999999
 20
87.791808
 42
0.0
 97
        8
330
14262
330
14263
330
1424E
330
1425B
330
1425D
330
14254
330
1429E
330
14253
 92
        7
 72
     1
 73
     1
 93
        6
 10
297.8255849999999
 20
88.26410199999998
 42
0.3193186334445322
 10
298.1614566861792
 20
87.79180770975037
 42
0.0
 10
298.1614569999999
 20
87.791808
 42
0.0
 10
298.3232296627422
 20
87.73558992589439
 42
0.1287861006004108
 10
299.093585
 20
90.67681700000003
 42
0.0
 10
297.8255849999999
 20
90.67681700000003
 42
0.0
 97
        5
330
14262
330
14253
330
1429E
330
1424E
330
14263
 75
     0
 76
     0
 52
45.0
 41
1.0
 77
     0
 78
     1
 53
45.0
 43
164.9514762497685
 44
89.27426962497253
 45
-0.7071067811865475
 46
0.7071067811865476
 79
     0
 47
0.0
 98
       18
 10
291.3103538879042
 20
95.29597429306607
 10
287.5641079931742
 20
91.69381477890259
 10
287.684273783217
 20
91.74690910924157
 10
288.9748947552121
 20
91.30309433132946
 10
293.9274556741368
 20
91.93149002303412
 10
294.7450404929042
 20
95.03831233435041
 10
296.6118591624232
 20
93.6211653151535
 10
298.2470287999581
 20
91.93149002303412
 10
295.9032856528248
 20
91.7543466456345
 10
287.4957884331662
 20
90.03741852622287
 10
287.6456789832736
 20
90.01016569893062
 10
288.1907355291185
 20
88.96093184817906
 10
290.5889843308364
 20
88.42950171598022
 10
294.063719810598
 20
88.3068639931651
 10
294.8676782157194
 20
86.26290194624649
 10
295.930538480117
 20
89.65587894413139
 10
296.7208704715922
 20
89.45148273943953
 10
298.2879080408965
 20
89.42422991214728
1001
ACAD
1010
0.0
1020
0.0
1030
0.0
1001
AcadAnnotative
1000
AnnotativeData
1002
{
1070
     1
1070
     0
1002
}
  0
CIRCLE
  5
1424B
102
{ACAD_REACTORS
330
14241
330
14247
102
}
330
14185
100
AcDbEntity
  8
10
  6
Continuous
100
AcDbCircle
 10
318.093585
 20
90.676817
 30
0.0
 40
30.5
  0
CIRCLE
  5
1424C
102
{ACAD_REACTORS
330
14241
330
14247
102
}
330
14185
100
AcDbEntity
  8
10
  6
Continuous
100
AcDbCircle
 10
318.093585
 20
90.676817
 30
0.0
 40
30.4
  0
ARC
  5
1424D
102
{ACAD_REACTORS
330
14241
330
14247
102
}
330
14185
100
AcDbEntity
  8
10
  6
Continuous
100
AcDbCircle
 10
318.093585
 20
90.676817
 30
0.0
 40
29.5
100
AcDbArc
 50
173.565404
 51
6.434596
  0
LINE
  5
1424E
102
{ACAD_REACTORS
330
14241
330
14247
102
}
330
14185
100
AcDbEntity
  8
7
100
AcDbLine
 10
275.864357
 20
90.676817
 30
0.0
 11
360.539659
 21
90.676817
 31
0.0
  0
ARC
  5
1424F
102
{ACAD_REACTORS
330
14241
102
}
330
14185
100
AcDbEntity
  8
10
  6
Continuous
100
AcDbCircle
 10
318.093585
 20
90.676817
 30
0.0
 40
13.0
100
AcDbArc
 50
38.632779000002
 51
141.367220999998
  0
ARC
  5
14250
102
{ACAD_REACTORS
330
14241
102
}
330
14185
100
AcDbEntity
  8
10
  6
Continuous
100
AcDbCircle
 10
318.093585
 20
90.676817
 30
0.0
 40
13.0
100
AcDbArc
 50
218.632779000002
 51
321.367220999998
  0
LINE
  5
14251
102
{ACAD_REACTORS
330
14241
330
14247
102
}
330
14185
100
AcDbEntity
  8
10
  6
Continuous
100
AcDbLine
 10
315.051303
 20
99.431264
 30
0.0
 11
298.161457
 21
93.561826
 31
0.0
  0
ARC
  5
14252
102
{ACAD_REACTORS
330
14241
330
14247
102
}
330
14185
100
AcDbEntity
  8
10
  6
Continuous
100
AcDbCircle
 10
318.093585
 20
90.676817
 30
0.0
 40
25.5
100
AcDbArc
 50
192.635625
 51
347.364375
  0
LINE
  5
14253
102
{ACAD_REACTORS
330
14241
330
14247
102
}
330
14185
100
AcDbEntity
  8
10
  6
Continuous
100
AcDbLine
 10
315.051303
 20
81.92237
 30
0.0
 11
298.161457
 21
87.791808
 31
0.0
  0
LINE
  5
14254
102
{ACAD_REACTORS
330
14241
330
14247
102
}
330
14185
100
AcDbEntity
  8
10
  6
Continuous
100
AcDbLine
 10
296.429457
 20
86.560097
 30
0.0
 11
314.482762
 21
80.286343
 31
0.0
  0
LINE
  5
14255
102
{ACAD_REACTORS
330
14241
330
14247
102
}
330
14185
100
AcDbEntity
  8
10
  6
Continuous
100
AcDbLine
 10
314.482762
 20
101.067291
 30
0.0
 11
296.429457
 21
94.793537
 31
0.0
  0
LINE
  5
14256
102
{ACAD_REACTORS
330
14247
102
}
330
14185
100
AcDbEntity
  8
10
  6
Continuous
100
AcDbLine
 10
295.093585
 20
94.426817
 30
0.0
 11
289.276273
 21
94.426817
 31
0.0
  0
ARC
  5
14257
102
{ACAD_REACTORS
330
14247
102
}
330
14185
100
AcDbEntity
  8
10
  6
Continuous
100
AcDbCircle
 10
289.276273
 20
93.926817
 30
0.0
 40
0.5
100
AcDbArc
 50
90.0
 51
173.565403999999
  0
ARC
  5
14258
102
{ACAD_REACTORS
330
14247
102
}
330
14185
100
AcDbEntity
  8
10
  6
Continuous
100
AcDbCircle
 10
295.093585
 20
87.426817
 30
0.0
 40
0.5
100
AcDbArc
 50
270.0
 51
0.0
  0
ARC
  5
14259
102
{ACAD_REACTORS
330
14247
102
}
330
14185
100
AcDbEntity
  8
10
  6
Continuous
100
AcDbCircle
 10
294.674843
 20
85.426817
 30
0.0
 40
1.5
100
AcDbArc
 50
90.0
 51
192.635625
  0
LINE
  5
1425A
330
14185
100
AcDbEntity
  8
10
  6
Continuous
100
AcDbLine
 10
297.825585
 20
87.908527
 30
0.0
 11
296.252528
 21
86.789849
 31
0.0
  0
LINE
  5
1425B
102
{ACAD_REACTORS
330
14247
102
}
330
14185
100
AcDbEntity
  8
10
  6
Continuous
100
AcDbLine
 10
296.093585
 20
94.321242
 30
0.0
 11
296.093585
 21
87.032392
 31
0.0
  0
LINE
  5
1425C
102
{ACAD_REACTORS
330
14247
102
}
330
14185
100
AcDbEntity
  8
10
  6
Continuous
100
AcDbLine
 10
295.093585
 20
86.926817
 30
0.0
 11
294.674843
 21
86.926817
 31
0.0
  0
ARC
  5
1425D
102
{ACAD_REACTORS
330
14247
102
}
330
14185
100
AcDbEntity
  8
10
  6
Continuous
100
AcDbCircle
 10
296.593585
 20
87.032392
 30
0.0
 40
0.5
100
AcDbArc
 50
180.0
 51
250.837005999993
  0
ARC
  5
1425E
102
{ACAD_REACTORS
330
14247
102
}
330
14185
100
AcDbEntity
  8
10
  6
Continuous
100
AcDbCircle
 10
295.093585
 20
93.926817
 30
0.0
 40
0.5
100
AcDbArc
 50
0.0
 51
90.0
  0
LINE
  5
1425F
330
14185
100
AcDbEntity
  8
10
  6
Continuous
100
AcDbLine
 10
297.825585
 20
93.445107
 30
0.0
 11
296.252528
 21
94.563785
 31
0.0
  0
ARC
  5
14260
102
{ACAD_REACTORS
330
14247
102
}
330
14185
100
AcDbEntity
  8
10
  6
Continuous
100
AcDbCircle
 10
298.325585
 20
93.089532
 30
0.0
 40
0.5
100
AcDbArc
 50
109.162994000007
 51
180.0
  0
LINE
  5
14261
102
{ACAD_REACTORS
330
14247
102
}
330
14185
100
AcDbEntity
  8
10
  6
Continuous
100
AcDbLine
 10
296.093585
 20
89.076817
 30
0.0
 11
295.593585
 21
89.076817
 31
0.0
  0
ARC
  5
14262
102
{ACAD_REACTORS
330
14247
102
}
330
14185
100
AcDbEntity
  8
10
  6
Continuous
100
AcDbCircle
 10
298.325585
 20
88.264102
 30
0.0
 40
0.5
100
AcDbArc
 50
180.0
 51
250.837005999993
  0
LINE
  5
14263
102
{ACAD_REACTORS
330
14247
102
}
330
14185
100
AcDbEntity
  8
10
  6
Continuous
100
AcDbLine
 10
297.825585
 20
93.089532
 30
0.0
 11
297.825585
 21
88.264102
 31
0.0
  0
LINE
  5
14264
102
{ACAD_REACTORS
330
14247
102
}
330
14185
100
AcDbEntity
  8
10
  6
Continuous
100
AcDbLine
 10
295.593585
 20
92.276817
 30
0.0
 11
296.093585
 21
92.276817
 31
0.0
  0
LINE
  5
14265
102
{ACAD_REACTORS
330
14247
102
}
330
14185
100
AcDbEntity
  8
10
  6
Continuous
100
AcDbLine
 10
295.593585
 20
87.426817
 30
0.0
 11
295.593585
 21
93.926817
 31
0.0
  0
ARC
  5
14266
102
{ACAD_REACTORS
330
14247
102
}
330
14185
100
AcDbEntity
  8
10
  6
Continuous
100
AcDbCircle
 10
296.593585
 20
94.321242
 30
0.0
 40
0.5
100
AcDbArc
 50
109.162994000007
 51
180.0
  0
LINE
  5
14267
102
{ACAD_REACTORS
330
14241
102
}
330
14185
100
AcDbEntity
  8
10
  6
Continuous
100
AcDbLine
 10
338.025714
 20
93.561826
 30
0.0
 11
321.135868
 21
99.431264
 31
0.0
  0
LINE
  5
14268
102
{ACAD_REACTORS
330
14241
102
}
330
14185
100
AcDbEntity
  8
10
  6
Continuous
100
AcDbLine
 10
339.757714
 20
94.793537
 30
0.0
 11
321.704408
 21
101.067291
 31
0.0
  0
LINE
  5
14269
102
{ACAD_REACTORS
330
14241
102
}
330
14185
100
AcDbEntity
  8
10
  6
Continuous
100
AcDbLine
 10
338.025714
 20
87.791808
 30
0.0
 11
321.135868
 21
81.92237
 31
0.0
  0
LINE
  5
1426A
102
{ACAD_REACTORS
330
14241
102
}
330
14185
100
AcDbEntity
  8
10
  6
Continuous
100
AcDbLine
 10
321.704408
 20
80.286343
 30
0.0
 11
339.757714
 21
86.560097
 31
0.0
  0
ARC
  5
1426B
102
{ACAD_REACTORS
330
14241
102
}
330
14185
100
AcDbEntity
  8
10
  6
Continuous
100
AcDbCircle
 10
318.093585
 20
90.676817
 30
0.0
 40
9.268
100
AcDbArc
 50
250.837005999999
 51
289.162994
  0
ARC
  5
1426C
102
{ACAD_REACTORS
330
14241
102
}
330
14185
100
AcDbEntity
  8
10
  6
Continuous
100
AcDbCircle
 10
318.093585
 20
90.676817
 30
0.0
 40
11.0
100
AcDbArc
 50
250.837005999999
 51
289.162994000001
  0
LINE
  5
1426D
102
{ACAD_REACTORS
330
14241
102
}
330
14185
100
AcDbEntity
  8
10
  6
Continuous
100
AcDbLine
 10
346.910898
 20
94.426817
 30
0.0
 11
341.093585
 21
94.426817
 31
0.0
  0
ARC
  5
1426E
102
{ACAD_REACTORS
330
14241
102
}
330
14185
100
AcDbEntity
  8
10
  6
Continuous
100
AcDbCircle
 10
341.512328
 20
85.426817
 30
0.0
 40
1.5
100
AcDbArc
 50
347.364375
 51
90.0
  0
LINE
  5
1426F
330
14185
100
AcDbEntity
  8
10
  6
Continuous
100
AcDbLine
 10
339.934643
 20
86.789849
 30
0.0
 11
338.361585
 21
87.908527
 31
0.0
  0
LINE
  5
14270
102
{ACAD_REACTORS
330
14241
102
}
330
14185
100
AcDbEntity
  8
10
  6
Continuous
100
AcDbLine
 10
340.093585
 20
87.032392
 30
0.0
 11
340.093585
 21
94.321242
 31
0.0
  0
ARC
  5
14271
102
{ACAD_REACTORS
330
14241
102
}
330
14185
100
AcDbEntity
  8
10
  6
Continuous
100
AcDbCircle
 10
341.093585
 20
87.426817
 30
0.0
 40
0.5
100
AcDbArc
 50
180.0
 51
270.0
  0
ARC
  5
14272
102
{ACAD_REACTORS
330
14241
102
}
330
14185
100
AcDbEntity
  8
10
  6
Continuous
100
AcDbCircle
 10
339.593585
 20
87.032392
 30
0.0
 40
0.5
100
AcDbArc
 50
289.162993999994
 51
0.0
  0
LINE
  5
14273
102
{ACAD_REACTORS
330
14241
102
}
330
14185
100
AcDbEntity
  8
10
  6
Continuous
100
AcDbLine
 10
341.093585
 20
86.926817
 30
0.0
 11
341.512328
 21
86.926817
 31
0.0
  0
LINE
  5
14274
330
14185
100
AcDbEntity
  8
10
  6
Continuous
100
AcDbLine
 10
339.934643
 20
94.563785
 30
0.0
 11
338.361585
 21
93.445107
 31
0.0
  0
ARC
  5
14275
102
{ACAD_REACTORS
330
14241
102
}
330
14185
100
AcDbEntity
  8
10
  6
Continuous
100
AcDbCircle
 10
337.861585
 20
88.264102
 30
0.0
 40
0.5
100
AcDbArc
 50
289.162993999994
 51
0.0
  0
ARC
  5
14276
102
{ACAD_REACTORS
330
14241
102
}
330
14185
100
AcDbEntity
  8
10
  6
Continuous
100
AcDbCircle
 10
337.861585
 20
93.089532
 30
0.0
 40
0.5
100
AcDbArc
 50
0.0
 51
70.837006000006
  0
LINE
  5
14277
102
{ACAD_REACTORS
330
14241
102
}
330
14185
100
AcDbEntity
  8
10
  6
Continuous
100
AcDbLine
 10
338.361585
 20
88.264102
 30
0.0
 11
338.361585
 21
93.089532
 31
0.0
  0
LINE
  5
14278
102
{ACAD_REACTORS
330
14241
102
}
330
14185
100
AcDbEntity
  8
10
  6
Continuous
100
AcDbLine
 10
340.093585
 20
92.276817
 30
0.0
 11
340.593585
 21
92.276817
 31
0.0
  0
LINE
  5
14279
102
{ACAD_REACTORS
330
14241
102
}
330
14185
100
AcDbEntity
  8
10
  6
Continuous
100
AcDbLine
 10
340.593585
 20
89.076817
 30
0.0
 11
340.093585
 21
89.076817
 31
0.0
  0
ARC
  5
1427A
102
{ACAD_REACTORS
330
14241
102
}
330
14185
100
AcDbEntity
  8
10
  6
Continuous
100
AcDbCircle
 10
339.593585
 20
94.321242
 30
0.0
 40
0.5
100
AcDbArc
 50
0.0
 51
70.837006000006
  0
LINE
  5
1427B
102
{ACAD_REACTORS
330
14241
102
}
330
14185
100
AcDbEntity
  8
10
  6
Continuous
100
AcDbLine
 10
340.593585
 20
93.926817
 30
0.0
 11
340.593585
 21
87.426817
 31
0.0
  0
ARC
  5
1427C
102
{ACAD_REACTORS
330
14241
102
}
330
14185
100
AcDbEntity
  8
10
  6
Continuous
100
AcDbCircle
 10
341.093585
 20
93.926817
 30
0.0
 40
0.5
100
AcDbArc
 50
90.0
 51
180.0
  0
ARC
  5
1427D
102
{ACAD_REACTORS
330
14241
102
}
330
14185
100
AcDbEntity
  8
10
  6
Continuous
100
AcDbCircle
 10
346.910898
 20
93.926817
 30
0.0
 40
0.5
100
AcDbArc
 50
6.434596
 51
90.0
  0
ARC
  5
1427E
102
{ACAD_REACTORS
330
14241
102
}
330
14185
100
AcDbEntity
  8
10
  6
Continuous
100
AcDbCircle
 10
318.093585
 20
90.676817
 30
0.0
 40
9.268
100
AcDbArc
 50
70.837005999999
 51
109.162994000001
  0
ARC
  5
1427F
102
{ACAD_REACTORS
330
14241
102
}
330
14185
100
AcDbEntity
  8
10
  6
Continuous
100
AcDbCircle
 10
318.093585
 20
90.676817
 30
0.0
 40
11.0
100
AcDbArc
 50
70.837005999999
 51
109.162994000001
  0
DIMENSION
  5
14280
330
14185
100
AcDbEntity
  8
6
100
AcDbDimension
280
     0
  2
*D116
 10
203.542401
 20
6.194455
 30
0.0
 11
178.542401
 21
9.197232777778
 31
0.0
 70
    32
  1
30~<>
 71
     5
 42
-1.0
 73
     0
 74
     0
 75
     0
  3
GEN-ISO
100
AcDbAlignedDimension
 13
153.542401
 23
53.176817
 33
0.0
 14
203.542401
 24
53.176817
 34
0.0
100
AcDbRotatedDimension
  0
DIMENSION
  5
1428D
330
14185
100
AcDbEntity
  8
6
100
AcDbDimension
280
     0
  2
*D117
 10
143.542401
 20
6.194455
 30
0.0
 11
148.542401
 21
9.194455
 31
0.0
 70
    32
 71
     5
 42
-1.0
 73
     0
 74
     0
 75
     0
  3
GEN-ISO
100
AcDbAlignedDimension
 13
153.542401
 23
53.176817
 33
0.0
 14
143.542401
 24
57.676817
 34
0.0
100
AcDbRotatedDimension
  0
LINE
  5
1429A
102
{ACAD_REACTORS
330
14241
330
142BF
102
}
330
14185
100
AcDbEntity
  8
7
100
AcDbLine
 10
343.093585
 20
78.655789459551
 30
0.0
 11
343.093585
 21
102.697844540449
 31
0.0
  0
CIRCLE
  5
1429B
102
{ACAD_REACTORS
330
14241
330
142B0
102
}
330
14185
100
AcDbEntity
  8
4P
100
AcDbCircle
 10
343.093585
 20
90.676817
 30
0.0
 40
6.0
  0
CIRCLE
  5
1429C
102
{ACAD_REACTORS
330
14241
330
142A1
102
}
330
14185
100
AcDbEntity
  8
4P
100
AcDbCircle
 10
318.093585
 20
90.676817
 30
0.0
 40
15.0
  0
LINE
  5
1429D
102
{ACAD_REACTORS
330
14247
330
142BF
102
}
330
14185
100
AcDbEntity
  8
7
100
AcDbLine
 10
293.093585
 20
78.655789459551
 30
0.0
 11
293.093585
 21
102.697844540449
 31
0.0
  0
CIRCLE
  5
1429E
102
{ACAD_REACTORS
330
14247
102
}
330
14185
100
AcDbEntity
  8
4P
100
AcDbCircle
 10
293.093585
 20
90.676817
 30
0.0
 40
6.0
  0
DIMENSION
  5
1429F
102
{ACAD_REACTORS
330
142A1
102
}
102
{ACAD_XDICTIONARY
360
142A0
102
}
330
14185
100
AcDbEntity
  8
6
100
AcDbDimension
280
     0
  2
*D118
 10
327.452936798099
 20
78.954934304826
 30
0.0
 11
270.631935101104
 21
138.053932307013
 31
0.0
 70
   163
  1
\A1;%%C30貫通穴
 71
     5
 42
-1.0
 73
     0
 74
     0
 75
     0
  3
RADIUS-NORMAL
100
AcDbDiametricDimension
 15
308.734233201901
 25
102.398699695174
 35
0.0
 40
0.0
  0
DIMENSION
  5
142AE
102
{ACAD_REACTORS
330
142B0
102
}
102
{ACAD_XDICTIONARY
360
142AF
102
}
330
14185
100
AcDbEntity
  8
6
100
AcDbDimension
280
     0
  2
*D119
 10
340.067671937026
 20
85.495711892465
 30
0.0
 11
372.990734785091
 21
120.978676713791
 31
0.0
 70
   163
  1
\A1;2-%%C12貫通穴
 71
     5
 42
-1.0
 73
     0
 74
     0
 75
     0
  3
RADIUS-NORMAL
100
AcDbDiametricDimension
 15
346.119498062973
 25
95.857922107535
 35
0.0
 40
0.0
  0
DIMENSION
  5
142BD
102
{ACAD_REACTORS
330
142BF
102
}
102
{ACAD_XDICTIONARY
360
142BE
102
}
330
14185
100
AcDbEntity
  8
6
100
AcDbDimension
280
     0
  2
*D120
 10
293.093585
 20
22.802400945522
 30
0.0
 11
318.093585
 21
25.8051787233
 31
0.0
 70
    32
  1
\A1;44　又は　50
 71
     5
 42
-1.0
 73
     0
 74
     0
 75
     0
  3
RADIUS-NORMAL
100
AcDbAlignedDimension
 13
343.093585
 23
78.655789459551
 33
0.0
 14
293.093585
 24
78.655789459551
 34
0.0
100
AcDbRotatedDimension
  0
TEXT
  5
142CC
330
14185
100
AcDbEntity
  8
6
100
AcDbText
 10
309.067855261223
 20
17.738668763392
 30
0.0
 40
4.0
  1
取付脚ピッチ
 41
0.7
  7
EXTFONT
100
AcDbText
  0
LINE
  5
142CD
330
14185
100
AcDbEntity
  8
10
  6
Continuous
100
AcDbLine
 10
192.042401
 20
94.176817
 30
0.0
 11
153.542401
 21
94.176817
 31
0.0
  0
ENDBLK
  5
142CF
330
14185
100
AcDbEntity
  8
0
100
AcDbBlockEnd
  0
BLOCK
  5
142D0
330
141F8
100
AcDbEntity
  8
0
100
AcDbBlockBegin
  2
*D113
 70
     1
 10
0.0
 20
0.0
 30
0.0
  3
*D113
  1

  0
LINE
  5
141FA
330
141F8
100
AcDbEntity
  8
6
 62
     0
370
    -2
100
AcDbLine
 10
204.542401
 20
53.176817
 30
0.0
 11
230.542401
 21
53.176817
 31
0.0
  0
LINE
  5
141FB
330
141F8
100
AcDbEntity
  8
6
 62
     0
370
    -2
100
AcDbLine
 10
204.542401
 20
128.176817
 30
0.0
 11
230.542401
 21
128.176817
 31
0.0
  0
LINE
  5
141FC
330
141F8
100
AcDbEntity
  8
6
 62
     0
370
    -2
100
AcDbLine
 10
228.542401
 20
55.676817
 30
0.0
 11
228.542401
 21
125.676817
 31
0.0
  0
INSERT
  5
141FD
330
141F8
100
AcDbEntity
  8
6
 62
     0
370
    -2
100
AcDbBlockReference
  2
_Open30
 10
228.542401
 20
53.176817
 30
0.0
 41
2.5
 42
2.5
 43
2.5
 50
270.0
  0
INSERT
  5
141FE
330
141F8
100
AcDbEntity
  8
6
 62
     0
370
    -2
100
AcDbBlockReference
  2
_Open30
 10
228.542401
 20
128.176817
 30
0.0
 41
2.5
 42
2.5
 43
2.5
 50
90.0
  0
MTEXT
  5
141FF
330
141F8
100
AcDbEntity
  8
6
 62
     2
100
AcDbMText
 10
225.539623222222
 20
90.676817
 30
0.0
 40
4.0
 41
0.0
 46
0.0
 71
     5
 72
     1
  1
\A1;%%C75
  7
EXTFONT
 11
0.0
 21
1.0
 31
0.0
 73
     1
 44
1.0
  0
POINT
  5
14200
330
141F8
100
AcDbEntity
  8
DEFPOINTS
 62
     0
100
AcDbPoint
 10
203.542401
 20
53.176817
 30
0.0
  0
POINT
  5
14201
330
141F8
100
AcDbEntity
  8
DEFPOINTS
 62
     0
100
AcDbPoint
 10
203.542401
 20
128.176817
 30
0.0
  0
POINT
  5
14202
330
141F8
100
AcDbEntity
  8
DEFPOINTS
 62
     0
100
AcDbPoint
 10
228.542401
 20
128.176817
 30
0.0
  0
ENDBLK
  5
142D1
330
141F8
100
AcDbEntity
  8
0
100
AcDbBlockEnd
  0
BLOCK
  5
142D2
330
14205
100
AcDbEntity
  8
0
100
AcDbBlockBegin
  2
*D114
 70
     1
 10
0.0
 20
0.0
 30
0.0
  3
*D114
  1

  0
LINE
  5
14207
330
14205
100
AcDbEntity
  8
6
 62
     0
370
    -2
100
AcDbLine
 10
152.542401
 20
53.176817
 30
0.0
 11
126.542401
 21
53.176817
 31
0.0
  0
LINE
  5
14208
330
14205
100
AcDbEntity
  8
6
 62
     0
370
    -2
100
AcDbLine
 10
152.542401
 20
128.176817
 30
0.0
 11
126.542401
 21
128.176817
 31
0.0
  0
LINE
  5
14209
330
14205
100
AcDbEntity
  8
6
 62
     0
370
    -2
100
AcDbLine
 10
128.542401
 20
55.676817
 30
0.0
 11
128.542401
 21
125.676817
 31
0.0
  0
INSERT
  5
1420A
330
14205
100
AcDbEntity
  8
6
 62
     0
370
    -2
100
AcDbBlockReference
  2
_Open30
 10
128.542401
 20
53.176817
 30
0.0
 41
2.5
 42
2.5
 43
2.5
 50
270.0
  0
INSERT
  5
1420B
330
14205
100
AcDbEntity
  8
6
 62
     0
370
    -2
100
AcDbBlockReference
  2
_Open30
 10
128.542401
 20
128.176817
 30
0.0
 41
2.5
 42
2.5
 43
2.5
 50
90.0
  0
MTEXT
  5
1420C
330
14205
100
AcDbEntity
  8
6
 62
     2
100
AcDbMText
 10
125.539623222222
 20
90.676817
 30
0.0
 40
4.0
 41
0.0
 46
0.0
 71
     5
 72
     1
  1
\A1;%%C75
  7
EXTFONT
 11
0.0
 21
1.0
 31
0.0
 73
     1
 44
1.0
  0
POINT
  5
1420D
330
14205
100
AcDbEntity
  8
DEFPOINTS
 62
     0
100
AcDbPoint
 10
153.542401
 20
53.176817
 30
0.0
  0
POINT
  5
1420E
330
14205
100
AcDbEntity
  8
DEFPOINTS
 62
     0
100
AcDbPoint
 10
153.542401
 20
128.176817
 30
0.0
  0
POINT
  5
1420F
330
14205
100
AcDbEntity
  8
DEFPOINTS
 62
     0
100
AcDbPoint
 10
128.542401
 20
128.176817
 30
0.0
  0
ENDBLK
  5
142D3
330
14205
100
AcDbEntity
  8
0
100
AcDbBlockEnd
  0
BLOCK
  5
142D4
330
14217
100
AcDbEntity
  8
0
100
AcDbBlockBegin
  2
*D115
 70
     1
 10
0.0
 20
0.0
 30
0.0
  3
*D115
  1

  0
LINE
  5
14219
330
14217
100
AcDbEntity
  8
6
 62
     0
370
    -2
100
AcDbLine
 10
213.542401
 20
56.676817
 30
0.0
 11
213.542401
 21
4.194455
 31
0.0
  0
LINE
  5
1421A
330
14217
100
AcDbEntity
  8
6
 62
     0
370
    -2
100
AcDbLine
 10
203.542401
 20
56.676817
 30
0.0
 11
203.542401
 21
4.194455
 31
0.0
  0
LINE
  5
1421B
330
14217
100
AcDbEntity
  8
6
 62
     0
370
    -2
100
AcDbLine
 10
211.042401
 20
6.194455
 30
0.0
 11
206.042401
 21
6.194455
 31
0.0
  0
INSERT
  5
1421C
330
14217
100
AcDbEntity
  8
6
 62
     0
370
    -2
100
AcDbBlockReference
  2
_Open30
 10
213.542401
 20
6.194455
 30
0.0
 41
2.5
 42
2.5
 43
2.5
  0
INSERT
  5
1421D
330
14217
100
AcDbEntity
  8
6
 62
     0
370
    -2
100
AcDbBlockReference
  2
_Open30
 10
203.542401
 20
6.194455
 30
0.0
 41
2.5
 42
2.5
 43
2.5
 50
180.0
  0
MTEXT
  5
1421E
330
14217
100
AcDbEntity
  8
6
 62
     2
100
AcDbMText
 10
208.542401
 20
9.194455
 30
0.0
 40
4.0
 41
0.0
 46
0.0
 71
     5
 72
     1
  1
\A1;10
  7
EXTFONT
 73
     1
 44
1.0
  0
POINT
  5
1421F
330
14217
100
AcDbEntity
  8
DEFPOINTS
 62
     0
100
AcDbPoint
 10
213.542401
 20
57.676817
 30
0.0
  0
POINT
  5
14220
330
14217
100
AcDbEntity
  8
DEFPOINTS
 62
     0
100
AcDbPoint
 10
203.542401
 20
57.676817
 30
0.0
  0
POINT
  5
14221
330
14217
100
AcDbEntity
  8
DEFPOINTS
 62
     0
100
AcDbPoint
 10
203.542401
 20
6.194455
 30
0.0
  0
ENDBLK
  5
142D5
330
14217
100
AcDbEntity
  8
0
100
AcDbBlockEnd
  0
BLOCK
  5
142D6
330
14281
100
AcDbEntity
  8
0
100
AcDbBlockBegin
  2
*D116
 70
     1
 10
0.0
 20
0.0
 30
0.0
  3
*D116
  1

  0
LINE
  5
14283
330
14281
100
AcDbEntity
  8
6
 62
     0
370
    -2
100
AcDbLine
 10
153.542401
 20
52.176817
 30
0.0
 11
153.542401
 21
4.194455
 31
0.0
  0
LINE
  5
14284
330
14281
100
AcDbEntity
  8
6
 62
     0
370
    -2
100
AcDbLine
 10
203.542401
 20
52.176817
 30
0.0
 11
203.542401
 21
4.194455
 31
0.0
  0
LINE
  5
14285
330
14281
100
AcDbEntity
  8
6
 62
     0
370
    -2
100
AcDbLine
 10
156.042401
 20
6.194455
 30
0.0
 11
201.042401
 21
6.194455
 31
0.0
  0
INSERT
  5
14286
330
14281
100
AcDbEntity
  8
6
 62
     0
370
    -2
100
AcDbBlockReference
  2
_Open30
 10
153.542401
 20
6.194455
 30
0.0
 41
2.5
 42
2.5
 43
2.5
 50
180.0
  0
INSERT
  5
14287
330
14281
100
AcDbEntity
  8
6
 62
     0
370
    -2
100
AcDbBlockReference
  2
_Open30
 10
203.542401
 20
6.194455
 30
0.0
 41
2.5
 42
2.5
 43
2.5
  0
MTEXT
  5
14288
330
14281
100
AcDbEntity
  8
6
 62
     2
100
AcDbMText
 10
178.542401
 20
9.197232777778
 30
0.0
 40
4.0
 41
0.0
 46
0.0
 71
     5
 72
     1
  1
\A1;30~50
  7
EXTFONT
 73
     1
 44
1.0
  0
POINT
  5
14289
330
14281
100
AcDbEntity
  8
DEFPOINTS
 62
     0
100
AcDbPoint
 10
153.542401
 20
53.176817
 30
0.0
  0
POINT
  5
1428A
330
14281
100
AcDbEntity
  8
DEFPOINTS
 62
     0
100
AcDbPoint
 10
203.542401
 20
53.176817
 30
0.0
  0
POINT
  5
1428B
330
14281
100
AcDbEntity
  8
DEFPOINTS
 62
     0
100
AcDbPoint
 10
203.542401
 20
6.194455
 30
0.0
  0
ENDBLK
  5
142D7
330
14281
100
AcDbEntity
  8
0
100
AcDbBlockEnd
  0
BLOCK
  5
142D8
330
1428E
100
AcDbEntity
  8
0
100
AcDbBlockBegin
  2
*D117
 70
     1
 10
0.0
 20
0.0
 30
0.0
  3
*D117
  1

  0
LINE
  5
14290
330
1428E
100
AcDbEntity
  8
6
 62
     0
370
    -2
100
AcDbLine
 10
153.542401
 20
52.176817
 30
0.0
 11
153.542401
 21
4.194455
 31
0.0
  0
LINE
  5
14291
330
1428E
100
AcDbEntity
  8
6
 62
     0
370
    -2
100
AcDbLine
 10
143.542401
 20
56.676817
 30
0.0
 11
143.542401
 21
4.194455
 31
0.0
  0
LINE
  5
14292
330
1428E
100
AcDbEntity
  8
6
 62
     0
370
    -2
100
AcDbLine
 10
151.042401
 20
6.194455
 30
0.0
 11
146.042401
 21
6.194455
 31
0.0
  0
INSERT
  5
14293
330
1428E
100
AcDbEntity
  8
6
 62
     0
370
    -2
100
AcDbBlockReference
  2
_Open30
 10
153.542401
 20
6.194455
 30
0.0
 41
2.5
 42
2.5
 43
2.5
  0
INSERT
  5
14294
330
1428E
100
AcDbEntity
  8
6
 62
     0
370
    -2
100
AcDbBlockReference
  2
_Open30
 10
143.542401
 20
6.194455
 30
0.0
 41
2.5
 42
2.5
 43
2.5
 50
180.0
  0
MTEXT
  5
14295
330
1428E
100
AcDbEntity
  8
6
 62
     2
100
AcDbMText
 10
148.542401
 20
9.194455
 30
0.0
 40
4.0
 41
0.0
 46
0.0
 71
     5
 72
     1
  1
\A1;10
  7
EXTFONT
 73
     1
 44
1.0
  0
POINT
  5
14296
330
1428E
100
AcDbEntity
  8
DEFPOINTS
 62
     0
100
AcDbPoint
 10
153.542401
 20
53.176817
 30
0.0
  0
POINT
  5
14297
330
1428E
100
AcDbEntity
  8
DEFPOINTS
 62
     0
100
AcDbPoint
 10
143.542401
 20
57.676817
 30
0.0
  0
POINT
  5
14298
330
1428E
100
AcDbEntity
  8
DEFPOINTS
 62
     0
100
AcDbPoint
 10
143.542401
 20
6.194455
 30
0.0
  0
ENDBLK
  5
142D9
330
1428E
100
AcDbEntity
  8
0
100
AcDbBlockEnd
  0
BLOCK
  5
142DA
330
142A2
100
AcDbEntity
  8
0
100
AcDbBlockBegin
  2
*D118
 70
     1
 10
0.0
 20
0.0
 30
0.0
  3
*D118
  1

  0
LINE
  5
142A4
330
142A2
100
AcDbEntity
  8
6
 62
     0
370
    -2
100
AcDbLine
 10
261.998601767771
 20
138.053932307013
 30
0.0
 11
280.265268434437
 21
138.053932307013
 31
0.0
  0
LINE
  5
142A5
330
142A2
100
AcDbEntity
  8
6
 62
     0
370
    -2
100
AcDbLine
 10
280.265268434437
 20
138.053932307013
 30
0.0
 11
307.174341235551
 21
104.352346811036
 31
0.0
  0
LINE
  5
142A6
330
142A2
100
AcDbEntity
  8
6
 62
     0
370
    -2
100
AcDbLine
 10
329.012828764449
 20
77.001287188964
 30
0.0
 11
330.572720730799
 21
75.047640073101
 31
0.0
  0
MTEXT
  5
142A7
330
142A2
100
AcDbEntity
  8
6
 62
     2
100
AcDbMText
 10
270.631935101104
 20
141.053932307013
 30
0.0
 40
4.0
 41
0.0
 46
0.0
 71
     5
 72
     1
  1
\A1;\A1;%%C30貫通穴
  7
EXTFONT
 73
     1
 44
1.0
  0
LINE
  5
142A8
330
142A2
100
AcDbEntity
  8
6
 62
     0
370
    -2
100
AcDbLine
 10
327.452936798099
 20
78.954934304826
 30
0.0
 11
308.734233201901
 21
102.398699695174
 31
0.0
  0
INSERT
  5
142A9
330
142A2
100
AcDbEntity
  8
6
 62
     0
370
    -2
100
AcDbBlockReference
  2
_Open30
 10
327.452936798099
 20
78.954934304826
 30
0.0
 41
2.5
 42
2.5
 43
2.5
 50
128.605659257873
  0
INSERT
  5
142AA
330
142A2
100
AcDbEntity
  8
6
 62
     0
370
    -2
100
AcDbBlockReference
  2
_Open30
 10
308.734233201901
 20
102.398699695174
 30
0.0
 41
2.5
 42
2.5
 43
2.5
 50
308.605659257873
  0
POINT
  5
142AB
330
142A2
100
AcDbEntity
  8
DEFPOINTS
 62
     0
100
AcDbPoint
 10
308.734233201901
 20
102.398699695174
 30
0.0
  0
POINT
  5
142AC
330
142A2
100
AcDbEntity
  8
DEFPOINTS
 62
     0
100
AcDbPoint
 10
327.452936798099
 20
78.954934304826
 30
0.0
  0
ENDBLK
  5
142DB
330
142A2
100
AcDbEntity
  8
0
100
AcDbBlockEnd
  0
BLOCK
  5
142DC
330
142B1
100
AcDbEntity
  8
0
100
AcDbBlockBegin
  2
*D119
 70
     1
 10
0.0
 20
0.0
 30
0.0
  3
*D119
  1

  0
LINE
  5
142B3
330
142B1
100
AcDbEntity
  8
6
 62
     0
370
    -2
100
AcDbLine
 10
384.190734785091
 20
120.978676713791
 30
0.0
 11
360.790734785091
 21
120.978676713791
 31
0.0
  0
LINE
  5
142B4
330
142B1
100
AcDbEntity
  8
6
 62
     0
370
    -2
100
AcDbLine
 10
360.790734785091
 20
120.978676713791
 30
0.0
 11
347.380295172546
 21
98.016715902341
 31
0.0
  0
LINE
  5
142B5
330
142B1
100
AcDbEntity
  8
6
 62
     0
370
    -2
100
AcDbLine
 10
338.806874827454
 20
83.336918097659
 30
0.0
 11
337.546077717882
 21
81.178124302852
 31
0.0
  0
MTEXT
  5
142B6
330
142B1
100
AcDbEntity
  8
6
 62
     2
100
AcDbMText
 10
372.990734785091
 20
123.978676713791
 30
0.0
 40
4.0
 41
0.0
 46
0.0
 71
     5
 72
     1
  1
\A1;\A1;2-%%C12貫通穴
  7
EXTFONT
 73
     1
 44
1.0
  0
LINE
  5
142B7
330
142B1
100
AcDbEntity
  8
6
 62
     0
370
    -2
100
AcDbLine
 10
340.067671937026
 20
85.495711892465
 30
0.0
 11
346.119498062973
 21
95.857922107535
 31
0.0
  0
INSERT
  5
142B8
330
142B1
100
AcDbEntity
  8
6
 62
     0
370
    -2
100
AcDbBlockReference
  2
_Open30
 10
340.067671937026
 20
85.495711892465
 30
0.0
 41
2.5
 42
2.5
 43
2.5
 50
59.713853867007
  0
INSERT
  5
142B9
330
142B1
100
AcDbEntity
  8
6
 62
     0
370
    -2
100
AcDbBlockReference
  2
_Open30
 10
346.119498062973
 20
95.857922107535
 30
0.0
 41
2.5
 42
2.5
 43
2.5
 50
239.713853867007
  0
POINT
  5
142BA
330
142B1
100
AcDbEntity
  8
DEFPOINTS
 62
     0
100
AcDbPoint
 10
346.119498062973
 20
95.857922107535
 30
0.0
  0
POINT
  5
142BB
330
142B1
100
AcDbEntity
  8
DEFPOINTS
 62
     0
100
AcDbPoint
 10
340.067671937026
 20
85.495711892465
 30
0.0
  0
ENDBLK
  5
142DD
330
142B1
100
AcDbEntity
  8
0
100
AcDbBlockEnd
  0
BLOCK
  5
142DE
330
142C0
100
AcDbEntity
  8
0
100
AcDbBlockBegin
  2
*D120
 70
     1
 10
0.0
 20
0.0
 30
0.0
  3
*D120
  1

  0
LINE
  5
142C2
330
142C0
100
AcDbEntity
  8
6
 62
     0
370
    -2
100
AcDbLine
 10
343.093585
 20
77.655789459551
 30
0.0
 11
343.093585
 21
20.802400945522
 31
0.0
  0
LINE
  5
142C3
330
142C0
100
AcDbEntity
  8
6
 62
     0
370
    -2
100
AcDbLine
 10
293.093585
 20
77.655789459551
 30
0.0
 11
293.093585
 21
20.802400945522
 31
0.0
  0
LINE
  5
142C4
330
142C0
100
AcDbEntity
  8
6
 62
     0
370
    -2
100
AcDbLine
 10
340.593585
 20
22.802400945522
 30
0.0
 11
295.593585
 21
22.802400945522
 31
0.0
  0
INSERT
  5
142C5
330
142C0
100
AcDbEntity
  8
6
 62
     0
370
    -2
100
AcDbBlockReference
  2
_Open30
 10
343.093585
 20
22.802400945522
 30
0.0
 41
2.5
 42
2.5
 43
2.5
  0
INSERT
  5
142C6
330
142C0
100
AcDbEntity
  8
6
 62
     0
370
    -2
100
AcDbBlockReference
  2
_Open30
 10
293.093585
 20
22.802400945522
 30
0.0
 41
2.5
 42
2.5
 43
2.5
 50
180.0
  0
MTEXT
  5
142C7
330
142C0
100
AcDbEntity
  8
6
 62
     2
100
AcDbMText
 10
318.093585
 20
25.8051787233
 30
0.0
 40
4.0
 41
0.0
 46
0.0
 71
     5
 72
     1
  1
\A1;\A1;44　又は　50
  7
EXTFONT
 73
     1
 44
1.0
  0
POINT
  5
142C8
330
142C0
100
AcDbEntity
  8
DEFPOINTS
 62
     0
100
AcDbPoint
 10
343.093585
 20
78.655789459551
 30
0.0
  0
POINT
  5
142C9
330
142C0
100
AcDbEntity
  8
DEFPOINTS
 62
     0
100
AcDbPoint
 10
293.093585
 20
78.655789459551
 30
0.0
  0
POINT
  5
142CA
330
142C0
100
AcDbEntity
  8
DEFPOINTS
 62
     0
100
AcDbPoint
 10
293.093585
 20
22.802400945522
 30
0.0
  0
ENDBLK
  5
142DF
330
142C0
100
AcDbEntity
  8
0
100
AcDbBlockEnd
  0
BLOCK
  5
14429
330
142E0
100
AcDbEntity
  8
0
100
AcDbBlockBegin
  2
A8B0148
 70
     0
 10
0.0
 20
0.0
 30
0.0
  3
A8B0148
  1

  0
LINE
  5
14318
330
142E0
100
AcDbEntity
  8
7
100
AcDbLine
 10
44.06796
 20
45.129576
 30
0.0
 11
44.06796
 21
136.770443
 31
0.0
  0
ARC
  5
14319
330
142E0
100
AcDbEntity
  8
10
  6
Continuous
100
AcDbCircle
 10
44.06796
 20
90.676817
 30
0.0
 40
29.5
100
AcDbArc
 50
173.565404
 51
6.434596
  0
CIRCLE
  5
1431A
330
142E0
100
AcDbEntity
  8
10
  6
Continuous
100
AcDbCircle
 10
44.06796
 20
90.676817
 30
0.0
 40
37.5
  0
CIRCLE
  5
1431B
330
142E0
100
AcDbEntity
  8
10
  6
Continuous
100
AcDbCircle
 10
44.06796
 20
90.676817
 30
0.0
 40
30.5
  0
CIRCLE
  5
1431C
330
142E0
100
AcDbEntity
  8
10
  6
Continuous
100
AcDbCircle
 10
44.06796
 20
90.676817
 30
0.0
 40
30.4
  0
LINE
  5
1431D
330
142E0
100
AcDbEntity
  8
7
100
AcDbLine
 10
0.0
 20
90.676817
 30
0.0
 11
86.687306
 21
90.676817
 31
0.0
  0
ARC
  5
1431E
330
142E0
100
AcDbEntity
  8
10
  6
Continuous
100
AcDbCircle
 10
44.06796
 20
90.676817
 30
0.0
 40
13.0
100
AcDbArc
 50
218.632779000002
 51
321.367220999998
  0
ARC
  5
1431F
330
142E0
100
AcDbEntity
  8
10
  6
Continuous
100
AcDbCircle
 10
44.06796
 20
90.676817
 30
0.0
 40
13.0
100
AcDbArc
 50
38.632779000002
 51
141.367220999998
  0
LINE
  5
14320
330
142E0
100
AcDbEntity
  8
10
  6
Continuous
100
AcDbLine
 10
47.678783
 20
101.067291
 30
0.0
 11
65.732088
 21
94.793537
 31
0.0
  0
LINE
  5
14321
330
142E0
100
AcDbEntity
  8
10
  6
Continuous
100
AcDbLine
 10
65.732088
 20
86.560097
 30
0.0
 11
47.678783
 21
80.286343
 31
0.0
  0
LINE
  5
14322
330
142E0
100
AcDbEntity
  8
10
  6
Continuous
100
AcDbLine
 10
47.110242
 20
81.92237
 30
0.0
 11
64.000088
 21
87.791808
 31
0.0
  0
LINE
  5
14323
330
142E0
100
AcDbEntity
  8
10
  6
Continuous
100
AcDbLine
 10
64.000088
 20
93.561826
 30
0.0
 11
47.110242
 21
99.431264
 31
0.0
  0
ARC
  5
14324
330
142E0
100
AcDbEntity
  8
10
  6
Continuous
100
AcDbCircle
 10
44.06796
 20
90.676817
 30
0.0
 40
25.5
100
AcDbArc
 50
192.635625
 51
347.364375
  0
LINE
  5
14325
330
142E0
100
AcDbEntity
  8
10
  6
Continuous
100
AcDbLine
 10
22.403832
 20
94.793537
 30
0.0
 11
40.457137
 21
101.067291
 31
0.0
  0
LINE
  5
14326
330
142E0
100
AcDbEntity
  8
10
  6
Continuous
100
AcDbLine
 10
41.025678
 20
99.431264
 30
0.0
 11
24.135832
 21
93.561826
 31
0.0
  0
LINE
  5
14327
330
142E0
100
AcDbEntity
  8
10
  6
Continuous
100
AcDbLine
 10
40.457137
 20
80.286343
 30
0.0
 11
22.403832
 21
86.560097
 31
0.0
  0
LINE
  5
14328
330
142E0
100
AcDbEntity
  8
10
  6
Continuous
100
AcDbLine
 10
24.135832
 20
87.791808
 30
0.0
 11
41.025678
 21
81.92237
 31
0.0
  0
LINE
  5
14329
330
142E0
100
AcDbEntity
  8
10
  6
Continuous
100
AcDbLine
 10
21.06796
 20
94.426817
 30
0.0
 11
15.250647
 21
94.426817
 31
0.0
  0
ARC
  5
1432A
330
142E0
100
AcDbEntity
  8
10
  6
Continuous
100
AcDbCircle
 10
15.250647
 20
93.926817
 30
0.0
 40
0.5
100
AcDbArc
 50
90.0
 51
173.565404
  0
ARC
  5
1432B
330
142E0
100
AcDbEntity
  8
10
  6
Continuous
100
AcDbCircle
 10
21.06796
 20
87.426817
 30
0.0
 40
0.5
100
AcDbArc
 50
270.0
 51
0.0
  0
ARC
  5
1432C
330
142E0
100
AcDbEntity
  8
10
  6
Continuous
100
AcDbCircle
 10
20.649217
 20
85.426817
 30
0.0
 40
1.5
100
AcDbArc
 50
90.0
 51
192.635625
  0
LINE
  5
1432D
330
142E0
100
AcDbEntity
  8
10
  6
Continuous
100
AcDbLine
 10
22.06796
 20
87.032392
 30
0.0
 11
22.06796
 21
94.321242
 31
0.0
  0
LINE
  5
1432E
330
142E0
100
AcDbEntity
  8
10
  6
Continuous
100
AcDbLine
 10
22.226902
 20
86.789849
 30
0.0
 11
23.79996
 21
87.908527
 31
0.0
  0
LINE
  5
1432F
330
142E0
100
AcDbEntity
  8
10
  6
Continuous
100
AcDbLine
 10
21.06796
 20
86.926817
 30
0.0
 11
20.649217
 21
86.926817
 31
0.0
  0
ARC
  5
14330
330
142E0
100
AcDbEntity
  8
10
  6
Continuous
100
AcDbCircle
 10
22.56796
 20
87.032392
 30
0.0
 40
0.5
100
AcDbArc
 50
180.0
 51
250.837005999999
  0
LINE
  5
14331
330
142E0
100
AcDbEntity
  8
10
  6
Continuous
100
AcDbLine
 10
22.226902
 20
94.563785
 30
0.0
 11
23.79996
 21
93.445107
 31
0.0
  0
ARC
  5
14332
330
142E0
100
AcDbEntity
  8
10
  6
Continuous
100
AcDbCircle
 10
21.06796
 20
93.926817
 30
0.0
 40
0.5
100
AcDbArc
 50
0.0
 51
90.0
  0
LINE
  5
14333
330
142E0
100
AcDbEntity
  8
10
  6
Continuous
100
AcDbLine
 10
22.06796
 20
92.276817
 30
0.0
 11
21.56796
 21
92.276817
 31
0.0
  0
LINE
  5
14334
330
142E0
100
AcDbEntity
  8
10
  6
Continuous
100
AcDbLine
 10
21.56796
 20
89.076817
 30
0.0
 11
22.06796
 21
89.076817
 31
0.0
  0
LINE
  5
14335
330
142E0
100
AcDbEntity
  8
10
  6
Continuous
100
AcDbLine
 10
21.56796
 20
93.926817
 30
0.0
 11
21.56796
 21
87.426817
 31
0.0
  0
ARC
  5
14336
330
142E0
100
AcDbEntity
  8
10
  6
Continuous
100
AcDbCircle
 10
22.56796
 20
94.321242
 30
0.0
 40
0.5
100
AcDbArc
 50
109.162994000001
 51
180.0
  0
ARC
  5
14337
330
142E0
100
AcDbEntity
  8
10
  6
Continuous
100
AcDbCircle
 10
24.29996
 20
88.264102
 30
0.0
 40
0.5
100
AcDbArc
 50
180.0
 51
250.837005999999
  0
LINE
  5
14338
330
142E0
100
AcDbEntity
  8
10
  6
Continuous
100
AcDbLine
 10
23.79996
 20
93.089532
 30
0.0
 11
23.79996
 21
88.264102
 31
0.0
  0
ARC
  5
14339
330
142E0
100
AcDbEntity
  8
10
  6
Continuous
100
AcDbCircle
 10
24.29996
 20
93.089532
 30
0.0
 40
0.5
100
AcDbArc
 50
109.162994000001
 51
180.0
  0
ARC
  5
1433A
330
142E0
100
AcDbEntity
  8
10
  6
Continuous
100
AcDbCircle
 10
44.06796
 20
90.676817
 30
0.0
 40
11.0
100
AcDbArc
 50
250.837005999999
 51
289.162994000001
  0
ARC
  5
1433B
330
142E0
100
AcDbEntity
  8
10
  6
Continuous
100
AcDbCircle
 10
44.06796
 20
90.676817
 30
0.0
 40
9.268
100
AcDbArc
 50
250.837005999999
 51
289.162994000001
  0
ARC
  5
1433C
330
142E0
100
AcDbEntity
  8
10
  6
Continuous
100
AcDbCircle
 10
44.06796
 20
90.676817
 30
0.0
 40
11.0
100
AcDbArc
 50
70.837005999999
 51
109.162994000001
  0
ARC
  5
1433D
330
142E0
100
AcDbEntity
  8
10
  6
Continuous
100
AcDbCircle
 10
44.06796
 20
90.676817
 30
0.0
 40
9.268
100
AcDbArc
 50
70.837005999999
 51
109.162994000001
  0
LINE
  5
1433E
330
142E0
100
AcDbEntity
  8
10
  6
Continuous
100
AcDbLine
 10
67.06796
 20
94.426817
 30
0.0
 11
72.885272
 21
94.426817
 31
0.0
  0
ARC
  5
1433F
330
142E0
100
AcDbEntity
  8
10
  6
Continuous
100
AcDbCircle
 10
67.06796
 20
87.426817
 30
0.0
 40
0.5
100
AcDbArc
 50
180.0
 51
270.0
  0
LINE
  5
14340
330
142E0
100
AcDbEntity
  8
10
  6
Continuous
100
AcDbLine
 10
65.909017
 20
86.789849
 30
0.0
 11
64.33596
 21
87.908527
 31
0.0
  0
LINE
  5
14341
330
142E0
100
AcDbEntity
  8
10
  6
Continuous
100
AcDbLine
 10
66.06796
 20
94.321242
 30
0.0
 11
66.06796
 21
87.032392
 31
0.0
  0
ARC
  5
14342
330
142E0
100
AcDbEntity
  8
10
  6
Continuous
100
AcDbCircle
 10
67.486702
 20
85.426817
 30
0.0
 40
1.5
100
AcDbArc
 50
347.364375
 51
90.0
  0
ARC
  5
14343
330
142E0
100
AcDbEntity
  8
10
  6
Continuous
100
AcDbCircle
 10
65.56796
 20
87.032392
 30
0.0
 40
0.5
100
AcDbArc
 50
289.162994000001
 51
0.0
  0
LINE
  5
14344
330
142E0
100
AcDbEntity
  8
10
  6
Continuous
100
AcDbLine
 10
67.486702
 20
86.926817
 30
0.0
 11
67.06796
 21
86.926817
 31
0.0
  0
LINE
  5
14345
330
142E0
100
AcDbEntity
  8
10
  6
Continuous
100
AcDbLine
 10
66.56796
 20
92.276817
 30
0.0
 11
66.06796
 21
92.276817
 31
0.0
  0
ARC
  5
14346
330
142E0
100
AcDbEntity
  8
10
  6
Continuous
100
AcDbCircle
 10
65.56796
 20
94.321242
 30
0.0
 40
0.5
100
AcDbArc
 50
0.0
 51
70.837005999999
  0
LINE
  5
14347
330
142E0
100
AcDbEntity
  8
10
  6
Continuous
100
AcDbLine
 10
65.909017
 20
94.563785
 30
0.0
 11
64.33596
 21
93.445107
 31
0.0
  0
ARC
  5
14348
330
142E0
100
AcDbEntity
  8
10
  6
Continuous
100
AcDbCircle
 10
63.83596
 20
93.089532
 30
0.0
 40
0.5
100
AcDbArc
 50
0.0
 51
70.837005999999
  0
LINE
  5
14349
330
142E0
100
AcDbEntity
  8
10
  6
Continuous
100
AcDbLine
 10
64.33596
 20
88.264102
 30
0.0
 11
64.33596
 21
93.089532
 31
0.0
  0
ARC
  5
1434A
330
142E0
100
AcDbEntity
  8
10
  6
Continuous
100
AcDbCircle
 10
63.83596
 20
88.264102
 30
0.0
 40
0.5
100
AcDbArc
 50
289.162994000001
 51
0.0
  0
ARC
  5
1434B
330
142E0
100
AcDbEntity
  8
10
  6
Continuous
100
AcDbCircle
 10
67.06796
 20
93.926817
 30
0.0
 40
0.5
100
AcDbArc
 50
90.0
 51
180.0
  0
LINE
  5
1434C
330
142E0
100
AcDbEntity
  8
10
  6
Continuous
100
AcDbLine
 10
66.56796
 20
87.426817
 30
0.0
 11
66.56796
 21
93.926817
 31
0.0
  0
ARC
  5
1434D
330
142E0
100
AcDbEntity
  8
10
  6
Continuous
100
AcDbCircle
 10
72.885272
 20
93.926817
 30
0.0
 40
0.5
100
AcDbArc
 50
6.434596
 51
90.0
  0
LINE
  5
1434E
330
142E0
100
AcDbEntity
  8
10
  6
Continuous
100
AcDbLine
 10
213.542401
 20
57.676817
 30
0.0
 11
213.542401
 21
123.676817
 31
0.0
  0
LINE
  5
1434F
330
142E0
100
AcDbEntity
  8
10
  6
Continuous
100
AcDbLine
 10
203.542401
 20
128.176817
 30
0.0
 11
203.542401
 21
53.176817
 31
0.0
  0
LINE
  5
14350
330
142E0
100
AcDbEntity
  8
10
  6
Continuous
100
AcDbLine
 10
153.542401
 20
128.176817
 30
0.0
 11
153.542401
 21
53.176817
 31
0.0
  0
LINE
  5
14351
330
142E0
100
AcDbEntity
  8
10
  6
Continuous
100
AcDbLine
 10
143.542401
 20
57.676817
 30
0.0
 11
143.542401
 21
123.676817
 31
0.0
  0
DIMENSION
  5
14352
330
142E0
100
AcDbEntity
  8
6
100
AcDbDimension
280
     0
  2
*D122
 10
228.542401
 20
128.176817
 30
0.0
 11
225.539623222222
 21
90.676817
 31
0.0
 70
    33
 71
     5
 42
-1.0
 73
     0
 74
     0
 75
     0
  3
CIRCLE-NORMAL
100
AcDbAlignedDimension
 13
203.542401
 23
53.176817
 33
0.0
 14
203.542401
 24
128.176817
 34
0.0
  0
DIMENSION
  5
1435F
330
142E0
100
AcDbEntity
  8
6
100
AcDbDimension
280
     0
  2
*D123
 10
128.542401
 20
128.176817
 30
0.0
 11
125.539623222222
 21
90.676817
 31
0.0
 70
    33
 71
     5
 42
-1.0
 73
     0
 74
     0
 75
     0
  3
CIRCLE-NORMAL
100
AcDbAlignedDimension
 13
153.542401
 23
53.176817
 33
0.0
 14
153.542401
 24
128.176817
 34
0.0
  0
TEXT
  5
1436C
330
142E0
100
AcDbEntity
  8
6
100
AcDbText
 10
173.286116075444
 20
0.0
 30
0.0
 40
4.0
  1
取付扉厚
 41
0.661764705882
  7
FX_FONT
 72
     5
 11
185.286116075444
 21
0.0
 31
0.0
100
AcDbText
  0
ARC
  5
1436D
330
142E0
100
AcDbEntity
  8
10
  6
Continuous
100
AcDbCircle
 10
153.542401
 20
70.176817
 30
0.0
 40
17.0
100
AcDbArc
 50
236.789787
 51
270.0
  0
ARC
  5
1436E
330
142E0
100
AcDbEntity
  8
10
  6
Continuous
100
AcDbCircle
 10
146.042401
 20
57.676817
 30
0.0
 40
2.5
100
AcDbArc
 50
180.0
 51
223.577374999999
  0
ARC
  5
1436F
330
142E0
100
AcDbEntity
  8
10
  6
Continuous
100
AcDbCircle
 10
211.042401
 20
57.676817
 30
0.0
 40
2.5
100
AcDbArc
 50
316.422625000001
 51
0.0
  0
ARC
  5
14370
330
142E0
100
AcDbEntity
  8
10
  6
Continuous
100
AcDbCircle
 10
203.542401
 20
70.176817
 30
0.0
 40
17.0
100
AcDbArc
 50
270.0
 51
303.210213
  0
DIMENSION
  5
14371
330
142E0
100
AcDbEntity
  8
6
100
AcDbDimension
280
     0
  2
*D124
 10
203.542401
 20
6.194455
 30
0.0
 11
208.542401
 21
9.194455
 31
0.0
 70
    33
 71
     5
 42
-1.0
 73
     0
 74
     0
 75
     0
  3
GEN-ISO
100
AcDbAlignedDimension
 13
213.542401
 23
57.676817
 33
0.0
 14
203.542401
 24
57.676817
 34
0.0
  0
LINE
  5
1437E
330
142E0
100
AcDbEntity
  8
7
100
AcDbLine
 10
131.458976
 20
90.676817
 30
0.0
 11
215.719661
 21
90.676817
 31
0.0
  0
ARC
  5
1437F
330
142E0
100
AcDbEntity
  8
10
  6
Continuous
100
AcDbCircle
 10
153.542401
 20
111.176817
 30
0.0
 40
17.0
100
AcDbArc
 50
90.0
 51
123.210213
  0
ARC
  5
14380
330
142E0
100
AcDbEntity
  8
10
  6
Continuous
100
AcDbCircle
 10
146.042401
 20
123.676817
 30
0.0
 40
2.5
100
AcDbArc
 50
136.422625000001
 51
180.0
  0
LINE
  5
14381
330
142E0
100
AcDbEntity
  8
10
  6
Continuous
100
AcDbLine
 10
203.542401
 20
95.191031
 30
0.0
 11
202.485295
 21
94.133924
 31
0.0
  0
LINE
  5
14382
330
142E0
100
AcDbEntity
  8
10
  6
Continuous
100
AcDbLine
 10
158.642401
 20
94.176817
 30
0.0
 11
158.642401
 21
102.776817
 31
0.0
  0
LINE
  5
14385
330
142E0
100
AcDbEntity
  8
5
  6
Continuous
100
AcDbLine
 10
202.485295
 20
88.626817
 30
0.0
 11
192.042401
 21
88.626817
 31
0.0
  0
LINE
  5
14386
330
142E0
100
AcDbEntity
  8
5
  6
Continuous
100
AcDbLine
 10
192.042401
 20
92.726817
 30
0.0
 11
202.485295
 21
92.726817
 31
0.0
  0
LINE
  5
14387
330
142E0
100
AcDbEntity
  8
10
  6
Continuous
100
AcDbLine
 10
158.642401
 20
78.576817
 30
0.0
 11
158.642401
 21
87.176817
 31
0.0
  0
LINE
  5
14388
330
142E0
100
AcDbEntity
  8
10
  6
Continuous
100
AcDbLine
 10
153.542401
 20
76.976817
 30
0.0
 11
157.042401
 21
76.976817
 31
0.0
  0
ARC
  5
14389
330
142E0
100
AcDbEntity
  8
10
  6
Continuous
100
AcDbCircle
 10
157.042401
 20
78.576817
 30
0.0
 40
1.6
100
AcDbArc
 50
270.0
 51
0.0
  0
LINE
  5
1438A
330
142E0
100
AcDbEntity
  8
10
  6
Continuous
100
AcDbLine
 10
202.485295
 20
94.133924
 30
0.0
 11
202.485295
 21
87.21971
 31
0.0
  0
LINE
  5
1438B
330
142E0
100
AcDbEntity
  8
10
  6
Continuous
100
AcDbLine
 10
202.485295
 20
87.21971
 30
0.0
 11
203.542401
 21
86.162603
 31
0.0
  0
LINE
  5
1438C
330
142E0
100
AcDbEntity
  8
10
  6
Continuous
100
AcDbLine
 10
192.042401
 20
87.176817
 30
0.0
 11
192.042401
 21
94.176817
 31
0.0
  0
LINE
  5
1438D
330
142E0
100
AcDbEntity
  8
10
  6
Continuous
100
AcDbLine
 10
153.542401
 20
87.176817
 30
0.0
 11
192.042401
 21
87.176817
 31
0.0
  0
ARC
  5
1438E
330
142E0
100
AcDbEntity
  8
10
  6
Continuous
100
AcDbCircle
 10
157.042401
 20
102.776817
 30
0.0
 40
1.6
100
AcDbArc
 50
0.0
 51
90.0
  0
LINE
  5
1438F
330
142E0
100
AcDbEntity
  8
10
  6
Continuous
100
AcDbLine
 10
157.042401
 20
104.376817
 30
0.0
 11
153.542401
 21
104.376817
 31
0.0
  0
LINE
  5
14390
330
142E0
100
AcDbEntity
  8
7
100
AcDbLine
 10
178.542401
 20
164.014278
 30
0.0
 11
178.542401
 21
22.841102265361
 31
0.0
  0
ARC
  5
14391
330
142E0
100
AcDbEntity
  8
10
  6
Continuous
100
AcDbCircle
 10
203.542401
 20
111.176817
 30
0.0
 40
17.0
100
AcDbArc
 50
56.789787
 51
90.0
  0
ARC
  5
14392
330
142E0
100
AcDbEntity
  8
10
  6
Continuous
100
AcDbCircle
 10
211.042401
 20
123.676817
 30
0.0
 40
2.5
100
AcDbArc
 50
0.0
 51
43.577374999999
  0
LINE
  5
14393
330
142E0
100
AcDbEntity
  8
10
  6
Continuous
100
AcDbLine
 10
198.442401
 20
102.776817
 30
0.0
 11
198.442401
 21
93.176817
 31
0.0
  0
LINE
  5
14394
330
142E0
100
AcDbEntity
  8
10
  6
Continuous
100
AcDbLine
 10
198.442401
 20
85.17137
 30
0.0
 11
158.642401
 21
85.17137
 31
0.0
  0
LINE
  5
14395
330
142E0
100
AcDbEntity
  8
10
  6
Continuous
100
AcDbLine
 10
158.642401
 20
84.181626
 30
0.0
 11
198.442401
 21
84.181626
 31
0.0
  0
LINE
  5
14396
330
142E0
100
AcDbEntity
  8
10
  6
Continuous
100
AcDbLine
 10
198.442401
 20
80.176817
 30
0.0
 11
158.642401
 21
80.176817
 31
0.0
  0
LINE
  5
14397
330
142E0
100
AcDbEntity
  8
10
  6
Continuous
100
AcDbLine
 10
198.442401
 20
88.176817
 30
0.0
 11
198.442401
 21
78.576817
 31
0.0
  0
LINE
  5
14398
330
142E0
100
AcDbEntity
  8
10
  6
Continuous
100
AcDbLine
 10
200.042401
 20
76.976817
 30
0.0
 11
203.542401
 21
76.976817
 31
0.0
  0
ARC
  5
14399
330
142E0
100
AcDbEntity
  8
10
  6
Continuous
100
AcDbCircle
 10
200.042401
 20
78.576817
 30
0.0
 40
1.6
100
AcDbArc
 50
180.0
 51
270.0
  0
LINE
  5
1439A
330
142E0
100
AcDbEntity
  8
10
  6
Continuous
100
AcDbLine
 10
203.542401
 20
104.376817
 30
0.0
 11
200.042401
 21
104.376817
 31
0.0
  0
ARC
  5
1439B
330
142E0
100
AcDbEntity
  8
10
  6
Continuous
100
AcDbCircle
 10
200.042401
 20
102.776817
 30
0.0
 40
1.6
100
AcDbArc
 50
90.0
 51
180.0
  0
HATCH
  5
1439C
102
{ACAD_XDICTIONARY
360
1439D
102
}
330
142E0
100
AcDbEntity
  8
8
100
AcDbHatch
 10
0.0
 20
0.0
 30
0.0
210
0.0
220
0.0
230
1.0
  2
_USER
 70
     0
 71
     1
 91
       32
 92
        7
 72
     1
 73
     1
 93
       10
 10
340.093585
 20
92.276817
 42
0.0
 10
340.593585
 20
92.276817
 42
0.0
 10
340.593585
 20
93.92681699999997
 42
-0.414213562373095
 10
341.093585
 20
94.42681699999997
 42
0.0
 10
343.093585
 20
94.42681699999997
 42
0.0
 10
343.093585
 20
96.67681700000003
 42
0.1902542669838174
 10
338.994851657215
 20
95.05864138999358
 42
0.0
 10
339.757714
 20
94.79353700000001
 42
0.0
 10
339.7577133138205
 20
94.79353629024962
 42
-0.3193186334445967
 10
340.093585
 20
94.32124199999998
 42
0.0
 97
        9
330
143D3
330
143D6
330
143D7
330
143C8
330
143F5
330
143F6
330
143C3
330
143D5
330
143CB
 92
        7
 72
     1
 73
     1
 93
       11
 10
339.757714
 20
94.79353700000001
 42
0.0
 10
338.994851657215
 20
95.05864138999357
 42
0.07676086453429
 10
337.86394050075
 20
93.61804436480277
 42
0.0
 10
338.0257139999999
 20
93.561826
 42
0.0
 10
338.0257133138205
 20
93.56182629024966
 42
-0.3193186334445967
 10
338.3615849999999
 20
93.08953200000002
 42
0.0
 10
338.3615849999999
 20
90.67681700000003
 42
0.0
 10
340.093585
 20
90.67681700000003
 42
0.0
 10
340.093585
 20
92.276817
 42
0.0
 10
340.093585
 20
94.32124199999998
 42
0.3193186334445967
 10
339.7577133138205
 20
94.79353629024962
 42
0.0
 97
        8
330
143C3
330
143F6
330
143C2
330
143D1
330
143D2
330
143A9
330
143CB
330
143D5
 92
        7
 72
     1
 73
     1
 93
        6
 10
338.0257139999999
 20
93.561826
 42
0.0
 10
337.86394050075
 20
93.61804436480276
 42
0.1287861147274971
 10
337.093585
 20
90.67681700000003
 42
0.0
 10
338.3615849999999
 20
90.67681700000003
 42
0.0
 10
338.3615849999999
 20
93.08953200000002
 42
0.3193186334445967
 10
338.0257133138205
 20
93.56182629024966
 42
0.0
 97
        5
330
143C2
330
143F6
330
143A9
330
143D2
330
143D1
 92
        7
 72
     1
 73
     1
 93
        6
 10
341.093585
 20
94.42681699999997
 42
0.414213562373095
 10
340.593585
 20
93.92681699999997
 42
0.0
 10
340.593585
 20
92.276817
 42
0.0
 10
340.593585
 20
90.67681700000003
 42
0.0
 10
343.093585
 20
90.67681700000003
 42
0.0
 10
343.093585
 20
94.42681699999997
 42
0.0
 97
        5
330
143D7
330
143D6
330
143A9
330
143F5
330
143C8
 92
        7
 72
     0
 73
     1
 93
        4
 10
340.593585
 20
92.276817
 10
340.093585
 20
92.276817
 10
340.093585
 20
90.67681700000003
 10
340.593585
 20
90.67681700000003
 97
        4
330
143D3
330
143CB
330
143A9
330
143D6
 92
        7
 72
     1
 73
     1
 93
        8
 10
346.910898
 20
94.42681699999997
 42
-0.3816899119301482
 10
347.4077482157455
 20
93.9828514814696
 42
0.0
 10
347.4077477289892
 20
93.98285140670774
 42
-0.0280836011396331
 10
347.593585
 20
90.67681700000001
 42
0.0
 10
348.4935849999999
 20
90.67681700000003
 42
0.0237304383397469
 10
348.3567849999999
 20
93.55756790210872
 42
0.2740682212535028
 10
343.093585
 20
96.67681700000003
 42
0.0
 10
343.093585
 20
94.42681699999997
 42
0.0
 97
        7
330
143D8
330
143A8
330
143A9
330
143A7
330
143F6
330
143F5
330
143C8
 92
        7
 72
     1
 73
     1
 93
        6
 10
347.4077482157455
 20
93.9828514814696
 42
0.3816899119301482
 10
346.910898
 20
94.42681699999997
 42
0.0
 10
343.093585
 20
94.42681699999997
 42
0.0
 10
343.093585
 20
90.67681700000003
 42
0.0
 10
347.593585
 20
90.67681700000003
 42
0.0280836011396331
 10
347.4077477289892
 20
93.98285140670774
 42
0.0
 97
        5
330
143D8
330
143C8
330
143F5
330
143A9
330
143A8
 92
        7
 72
     1
 73
     1
 93
        3
 10
349.093585
 20
90.67681700000003
 42
0.1146809888924601
 10
348.478585
 20
93.32290373327238
 42
-0.0217199509342918
 10
348.593585
 20
90.67681700000003
 42
0.0
 97
        3
330
143F6
330
143A6
330
143A9
 92
        7
 72
     1
 73
     1
 93
        6
 10
337.86394050075
 20
87.73558963519726
 42
0.0
 10
338.0257139999999
 20
87.791808
 42
0.0
 10
338.0257133138205
 20
87.79180770975034
 42
0.3193186334445968
 10
338.3615849999999
 20
88.26410199999998
 42
0.0
 10
338.3615849999999
 20
90.67681700000003
 42
0.0
 10
337.093585
 20
90.67681700000003
 42
0.1287861147274987
 97
        5
330
143C4
330
143D0
330
143D2
330
143A9
330
143F6
 92
        7
 72
     1
 73
     1
 93
       11
 10
339.7577133138205
 20
86.56009770975038
 42
0.3193186334445968
 10
340.093585
 20
87.03239200000002
 42
0.0
 10
340.093585
 20
89.076817
 42
0.0
 10
340.093585
 20
90.67681700000003
 42
0.0
 10
338.3615849999999
 20
90.67681700000003
 42
0.0
 10
338.3615849999999
 20
88.26410199999998
 42
-0.3193186334445968
 10
338.0257133138205
 20
87.79180770975034
 42
0.0
 10
338.0257139999999
 20
87.791808
 42
0.0
 10
337.86394050075
 20
87.73558963519726
 42
0.0767608645342896
 10
338.994851657215
 20
86.29499261000646
 42
0.0
 10
339.757714
 20
86.56009699999998
 42
0.0
 97
        8
330
143CD
330
143CB
330
143A9
330
143D2
330
143D0
330
143C4
330
143F6
330
143C5
 92
        7
 72
     1
 73
     1
 93
        8
 10
340.593585
 20
87.42681700000003
 42
0.414213562373095
 10
341.093585
 20
86.92681700000003
 42
0.0
 10
341.512328
 20
86.92681700000003
 42
-0.414213562373095
 10
343.012328
 20
85.42681700000003
 42
0.0
 10
343.093585
 20
85.42681700000003
 42
0.0
 10
343.093585
 20
90.67681700000003
 42
0.0
 10
340.593585
 20
90.67681700000003
 42
0.0
 10
340.593585
 20
89.076817
 42
0.0
 97
        6
330
143CC
330
143CE
330
143C9
330
143F5
330
143A9
330
143D6
 92
        7
 72
     1
 73
     1
 93
       13
 10
341.093585
 20
86.92681700000003
 42
-0.414213562373095
 10
340.593585
 20
87.42681700000003
 42
0.0
 10
340.593585
 20
89.076817
 42
0.0
 10
340.093585
 20
89.076817
 42
0.0
 10
340.093585
 20
87.03239200000002
 42
-0.3193186334445968
 10
339.7577133138205
 20
86.56009770975038
 42
0.0
 10
339.757714
 20
86.56009699999998
 42
0.0
 10
338.994851657215
 20
86.29499261000645
 42
0.1809852371013686
 10
342.878585
 20
84.68067032067339
 42
0.004208134512461
 10
342.9759989089248
 20
85.09869204039724
 42
0.0
 10
342.9759994064074
 20
85.09869200237634
 42
0.0551892454187815
 10
343.012328
 20
85.42681700000003
 42
0.414213562373095
 10
341.512328
 20
86.92681700000003
 42
0.0
 97
       10
330
143CC
330
143D6
330
143D4
330
143CB
330
143CD
330
143C5
330
143F6
330
143AD
330
143C9
330
143CE
 92
        7
 72
     0
 73
     1
 93
        4
 10
340.093585
 20
89.076817
 10
340.593585
 20
89.076817
 10
340.593585
 20
90.67681700000003
 10
340.093585
 20
90.67681700000003
 97
        4
330
143D4
330
143D6
330
143A9
330
143CB
 92
        7
 72
     1
 73
     1
 93
        5
 10
347.278585
 20
86.37730830713754
 42
0.0365830669761837
 10
347.593585
 20
90.67681700000001
 42
0.0
 10
343.093585
 20
90.67681700000003
 42
0.0
 10
343.093585
 20
85.42681700000003
 42
0.0
 10
343.093585
 20
84.67681700000003
 42
0.1954073690835727
 97
        4
330
143A8
330
143A9
330
143F5
330
143F6
 92
        7
 72
     1
 73
     1
 93
        4
 10
347.593585
 20
90.67681700000001
 42
-0.0365830669761837
 10
347.278585
 20
86.37730830713754
 42
0.0746623155869657
 10
348.3567849999999
 20
87.79606609789133
 42
0.023730438339747
 10
348.4935849999999
 20
90.67681700000001
 42
0.0
 97
        4
330
143A8
330
143F6
330
143A7
330
143A9
 92
        7
 72
     1
 73
     1
 93
        3
 10
348.478585
 20
88.03073026672767
 42
0.11468098889246
 10
349.093585
 20
90.67681700000003
 42
0.0
 10
348.593585
 20
90.67681700000003
 42
-0.0217199509342918
 97
        3
330
143F6
330
143A9
330
143A6
 92
        7
 72
     1
 73
     1
 93
        5
 10
304.8498108904828
 20
97.71971749170675
 42
0.0
 10
307.938460319881
 20
98.7930626056504
 42
0.0
 10
307.9384605126403
 20
98.79306284683267
 42
-0.2279618544222786
 10
318.093585
 20
103.676817
 42
0.0
 10
318.093585
 20
105.676817
 42
0.2773077316548406
 97
        4
330
143B0
330
143AA
330
143A0
330
143F7
 92
        7
 72
     1
 73
     1
 93
        6
 10
307.938460319881
 20
98.7930626056504
 42
0.0
 10
314.482762
 20
101.067291
 42
0.0
 10
314.4827620959459
 20
101.0672913854917
 42
-0.0838097406608967
 10
318.093585
 20
101.676817
 42
0.0
 10
318.093585
 20
103.676817
 42
0.2279618544222786
 10
307.9384605126403
 20
98.79306284683267
 42
0.0
 97
        4
330
143B0
330
143DA
330
143A0
330
143AA
 92
        7
 72
     1
 73
     1
 93
        9
 10
303.9105948953316
 20
95.55972511820981
 42
0.0
 10
315.051303
 20
99.431264
 42
0.0
 10
315.0513025750206
 20
99.43126396406701
 42
-0.0838097406608959
 10
318.093585
 20
99.94481700000003
 42
0.0
 10
318.093585
 20
101.676817
 42
0.0838097406608967
 10
314.4827620959459
 20
101.0672913854917
 42
0.0
 10
314.482762
 20
101.067291
 42
0.0
 10
307.938460319881
 20
98.7930626056504
 42
0.0
 10
304.8498108904828
 20
97.71971749170675
 42
0.0393165860459713
 97
        6
330
143AC
330
143D9
330
143A0
330
143DA
330
143B0
330
143F7
 92
        7
 72
     1
 73
     1
 93
        6
 10
315.051303
 20
99.431264
 42
0.0
 10
303.9105948953316
 20
95.55972511820981
 42
0.0830826910998097
 10
303.093585
 20
90.67681700000003
 42
0.0
 10
318.093585
 20
90.67681700000003
 42
0.0
 10
318.093585
 20
99.94481700000003
 42
0.0838097406608959
 10
315.0513025750206
 20
99.43126396406701
 42
0.0
 97
        5
330
143AC
330
143F7
330
143A9
330
143A0
330
143D9
 92
        7
 72
     1
 73
     1
 93
        6
 10
321.1358674249793
 20
99.43126396406701
 42
0.0838097406608959
 10
318.093585
 20
99.94481700000003
 42
0.0
 10
318.093585
 20
90.67681700000003
 42
0.0
 10
333.093585
 20
90.67681700000003
 42
0.0830826981058227
 10
332.2765749687675
 20
95.55972551294987
 42
0.0
 10
321.135868
 20
99.431264
 42
0.0
 97
        5
330
143D9
330
143A0
330
143A9
330
143F7
330
143C2
 92
        7
 72
     1
 73
     1
 93
        9
 10
321.7044079040541
 20
101.0672913854917
 42
0.0838097406608967
 10
318.093585
 20
101.676817
 42
0.0
 10
318.093585
 20
99.94481700000003
 42
-0.0838097406608959
 10
321.1358674249793
 20
99.43126396406701
 42
0.0
 10
321.135868
 20
99.431264
 42
0.0
 10
332.2765749687675
 20
95.55972551294987
 42
0.0393165833776454
 10
331.3373589885546
 20
97.71971771916995
 42
0.0
 10
328.2487095407216
 20
98.79306278006572
 42
0.0
 10
321.7044079999999
 20
101.067291
 42
0.0
 97
        6
330
143DA
330
143A0
330
143D9
330
143C2
330
143F7
330
143C3
 92
        7
 72
     1
 73
     1
 93
        6
 10
318.093585
 20
101.676817
 42
-0.0838097406608967
 10
321.7044079040541
 20
101.0672913854917
 42
0.0
 10
321.7044079999999
 20
101.067291
 42
0.0
 10
328.2487095407216
 20
98.79306278006572
 42
0.0
 10
328.2487094873596
 20
98.79306284683267
 42
0.2279618544222786
 10
318.093585
 20
103.676817
 42
0.0
 97
        4
330
143DA
330
143C3
330
143AA
330
143A0
 92
        7
 72
     1
 73
     1
 93
        5
 10
318.093585
 20
103.676817
 42
-0.2279618544222786
 10
328.2487094873596
 20
98.79306284683267
 42
0.0
 10
328.2487095407216
 20
98.79306278006572
 42
0.0
 10
331.3373589885546
 20
97.71971771916995
 42
0.2773077270308748
 10
318.093585
 20
105.676817
 42
0.0
 97
        4
330
143AA
330
143C3
330
143F7
330
143A0
 92
        7
 72
     1
 73
     1
 93
        6
 10
333.093585
 20
90.67681700000003
 42
0.0
 10
318.093585
 20
90.67681700000003
 42
0.0
 10
318.093585
 20
81.40881700000003
 42
0.0838097406608958
 10
321.1358674249793
 20
81.92237003593304
 42
0.0
 10
321.135868
 20
81.92237
 42
0.0
 10
332.2765749687675
 20
85.79390848705012
 42
0.0830826981058238
 97
        5
330
143A9
330
143A0
330
143C6
330
143C4
330
143F7
 92
        7
 72
     1
 73
     1
 93
        6
 10
303.9105948953316
 20
85.79390888179017
 42
0.0
 10
315.051303
 20
81.92237
 42
0.0
 10
315.0513025750206
 20
81.92237003593304
 42
0.083809740660896
 10
318.093585
 20
81.40881700000003
 42
0.0
 10
318.093585
 20
90.67681700000003
 42
0.0
 10
303.093585
 20
90.67681700000003
 42
0.083082691099811
 97
        5
330
143AE
330
143C6
330
143A0
330
143A9
330
143F7
 92
        7
 72
     1
 73
     1
 93
        9
 10
321.7044079999999
 20
80.28634299999999
 42
0.0
 10
328.2487095407214
 20
82.5605712199342
 42
0.0
 10
331.3373589885545
 20
83.63391628083
 42
0.0393165833776463
 10
332.2765749687675
 20
85.79390848705012
 42
0.0
 10
321.135868
 20
81.92237
 42
0.0
 10
321.1358674249793
 20
81.92237003593304
 42
-0.0838097406608958
 10
318.093585
 20
81.40881700000003
 42
0.0
 10
318.093585
 20
79.67681700000003
 42
0.0838097406608967
 10
321.7044079040541
 20
80.28634261450836
 42
0.0
 97
        6
330
143C5
330
143F7
330
143C4
330
143C6
330
143A0
330
143C7
 92
        7
 72
     1
 73
     1
 93
        9
 10
315.051303
 20
81.92237
 42
0.0
 10
303.9105948953316
 20
85.79390888179017
 42
0.0393165860459722
 10
304.8498108904828
 20
83.6339165082932
 42
0.0
 10
307.9384603198811
 20
82.56057139434952
 42
0.0
 10
314.482762
 20
80.28634299999999
 42
0.0
 10
314.4827620959459
 20
80.28634261450836
 42
0.0838097406608967
 10
318.093585
 20
79.67681700000003
 42
0.0
 10
318.093585
 20
81.40881700000003
 42
-0.083809740660896
 10
315.0513025750206
 20
81.92237003593304
 42
0.0
 97
        6
330
143AE
330
143F7
330
143AF
330
143C7
330
143A0
330
143C6
 92
        7
 72
     1
 73
     1
 93
        6
 10
307.9384605126403
 20
82.56057115316739
 42
0.2279618544222786
 10
318.093585
 20
77.67681700000003
 42
0.0
 10
318.093585
 20
79.67681700000003
 42
-0.0838097406608967
 10
314.4827620959459
 20
80.28634261450836
 42
0.0
 10
314.482762
 20
80.28634299999999
 42
0.0
 10
307.9384603198811
 20
82.56057139434952
 42
0.0
 97
        4
330
143AB
330
143A0
330
143C7
330
143AF
 92
        7
 72
     1
 73
     1
 93
        5
 10
318.093585
 20
77.67681700000003
 42
-0.2279618544222786
 10
307.9384605126403
 20
82.56057115316739
 42
0.0
 10
307.9384603198811
 20
82.56057139434952
 42
0.0
 10
304.8498108904828
 20
83.6339165082932
 42
0.2773077316548383
 10
318.093585
 20
75.67681700000003
 42
0.0
 97
        4
330
143AB
330
143AF
330
143F7
330
143A0
 92
        7
 72
     1
 73
     1
 93
        6
 10
328.2487095407214
 20
82.5605712199342
 42
0.0
 10
321.7044079999999
 20
80.28634299999999
 42
0.0
 10
321.7044079040541
 20
80.28634261450836
 42
-0.0838097406608967
 10
318.093585
 20
79.67681700000003
 42
0.0
 10
318.093585
 20
77.67681700000003
 42
0.2279618544222786
 10
328.2487094873596
 20
82.56057115316739
 42
0.0
 97
        4
330
143C5
330
143C7
330
143A0
330
143AB
 92
        7
 72
     1
 73
     1
 93
        5
 10
331.3373589885545
 20
83.63391628083
 42
0.0
 10
328.2487095407214
 20
82.5605712199342
 42
0.0
 10
328.2487094873596
 20
82.56057115316739
 42
-0.2279618544222786
 10
318.093585
 20
77.67681700000003
 42
0.0
 10
318.093585
 20
75.67681700000003
 42
0.2773077270308725
 97
        4
330
143C5
330
143AB
330
143A0
330
143F7
 75
     0
 76
     0
 52
45.0
 41
1.0
 77
     0
 78
     1
 53
45.0
 43
164.9514762497685
 44
89.27426962497253
 45
-0.7071067811865475
 46
0.7071067811865476
 79
     0
 47
0.0
 98
       32
 10
341.4245428129212
 20
95.39371288080278
 10
339.3652227770204
 20
94.45914154487652
 10
337.9631108436886
 20
92.21576245154561
 10
341.3026865394426
 20
91.73139651094007
 10
340.3721940745951
 20
91.48921354063731
 10
344.6771199344668
 20
95.22575079673716
 10
344.9632652269834
 20
92.6764563724975
 10
348.7892391452501
 20
91.10062498174858
 10
337.7887875082191
 20
90.05545142953662
 10
338.9936403531301
 20
90.01190253152778
 10
341.7952861250317
 20
87.81994133174992
 10
341.2436667502532
 20
86.20863210542313
 10
340.4888191847667
 20
89.69254394612969
 10
345.2937142650745
 20
88.31349550918334
 10
348.1389089349848
 20
89.4893157554218
 10
348.7921424051173
 20
89.92480473551012
 10
310.8952903915036
 20
102.4729393469082
 10
311.784043412092
 20
101.4149000366839
 10
306.9170625850603
 20
97.73292323710334
 10
307.8481371780577
 20
94.30487587197663
 10
320.5022873283402
 20
94.34719744438561
 10
322.9992601004695
 20
99.04489198178146
 10
323.3801542521503
 20
101.0763274574121
 10
325.9617701690976
 20
101.9227589055915
 10
326.0040917415065
 20
86.6023496935438
 10
313.9424436049496
 20
85.7135966729554
 10
324.4381935623745
 20
81.77769043892104
 10
312.3765454258177
 20
81.6930472941031
 10
311.6570786948652
 20
80.29643540460704
 10
310.8529688190947
 20
79.11143137715582
 10
321.3063972041107
 20
78.94214508751995
 10
321.5603266385645
 20
77.33392533597902
1001
ACAD
1010
0.0
1020
0.0
1030
0.0
1001
AcadAnnotative
1000
AnnotativeData
1002
{
1070
     1
1070
     0
1002
}
  0
LINE
  5
143A0
102
{ACAD_REACTORS
330
1439C
102
}
330
142E0
100
AcDbEntity
  8
7
100
AcDbLine
 10
318.093585
 20
42.300698
 30
0.0
 11
318.093585
 21
138.400445
 31
0.0
  0
CIRCLE
  5
143A1
330
142E0
100
AcDbEntity
  8
10
  6
Continuous
100
AcDbCircle
 10
318.093585
 20
90.676817
 30
0.0
 40
37.5
  0
HATCH
  5
143A2
102
{ACAD_XDICTIONARY
360
143A3
102
}
330
142E0
100
AcDbEntity
  8
8
100
AcDbHatch
 10
0.0
 20
0.0
 30
0.0
210
0.0
220
0.0
230
1.0
  2
_USER
 70
     0
 71
     1
 91
       18
 92
        7
 72
     1
 73
     1
 93
        8
 10
288.593585
 20
90.67681700000003
 42
-0.0280836011396336
 10
288.7794222710107
 20
93.98285140670781
 42
0.0
 10
288.7794227842544
 20
93.9828514814696
 42
-0.3816899119301446
 10
289.2762729999999
 20
94.42681699999997
 42
0.0
 10
293.093585
 20
94.42681699999997
 42
0.0
 10
293.093585
 20
96.67681700000003
 42
0.2740682212535028
 10
287.830385
 20
93.55756790210873
 42
0.023730438339747
 10
287.693585
 20
90.67681700000003
 42
0.0
 97
        7
330
143A8
330
143B2
330
143B1
330
143F8
330
143F9
330
143A7
330
143A9
 92
        7
 72
     1
 73
     1
 93
        3
 10
287.593585
 20
90.67681700000003
 42
-0.0217199509342917
 10
287.708585
 20
93.32290373327238
 42
0.1146809888924601
 10
287.093585
 20
90.67681700000003
 42
0.0
 97
        3
330
143A6
330
143F9
330
143A9
 92
        7
 72
     1
 73
     1
 93
        4
 10
287.708585
 20
93.32290373327238
 42
0.0217199509342917
 10
287.593585
 20
90.67681700000003
 42
0.0
 10
287.693585
 20
90.67681700000003
 42
-0.023730438339747
 10
287.830385
 20
93.55756790210873
 42
0.0110176219184422
 97
        4
330
143A6
330
143A9
330
143A7
330
143F9
 92
        7
 72
     1
 73
     1
 93
        6
 10
288.7794222710107
 20
93.98285140670781
 42
0.0280836011396336
 10
288.593585
 20
90.67681700000003
 42
0.0
 10
293.093585
 20
90.67681700000003
 42
0.0
 10
293.093585
 20
94.42681699999997
 42
0.0
 10
289.2762729999999
 20
94.42681699999997
 42
0.3816899119301446
 10
288.7794227842544
 20
93.9828514814696
 42
0.0
 97
        5
330
143A8
330
143A9
330
143F8
330
143B1
330
143B2
 92
        7
 72
     1
 73
     1
 93
        6
 10
295.593585
 20
93.92681699999997
 42
0.414213562373095
 10
295.093585
 20
94.42681699999997
 42
0.0
 10
293.093585
 20
94.42681699999997
 42
0.0
 10
293.093585
 20
90.67681700000003
 42
0.0
 10
295.593585
 20
90.67681700000003
 42
0.0
 10
295.593585
 20
92.276817
 42
0.0
 97
        5
330
143B9
330
143B1
330
143F8
330
143A9
330
143C0
 92
        7
 72
     1
 73
     1
 93
       10
 10
295.593585
 20
92.276817
 42
0.0
 10
296.093585
 20
92.276817
 42
0.0
 10
296.093585
 20
94.32124199999998
 42
-0.3193186334445323
 10
296.4294566861793
 20
94.79353629024959
 42
0.0
 10
296.429457
 20
94.79353700000001
 42
0.0
 10
297.1923186022178
 20
95.05864114732157
 42
0.190254282321234
 10
293.093585
 20
96.67681700000003
 42
0.0
 10
293.093585
 20
94.42681699999997
 42
0.0
 10
295.093585
 20
94.42681699999997
 42
-0.414213562373095
 10
295.593585
 20
93.92681699999997
 42
0.0
 97
        9
330
143BF
330
143B6
330
143C1
330
143B0
330
143F9
330
143F8
330
143B1
330
143B9
330
143C0
 92
        7
 72
     1
 73
     1
 93
       11
 10
296.4294566861793
 20
94.79353629024959
 42
0.3193186334445323
 10
296.093585
 20
94.32124199999998
 42
0.0
 10
296.093585
 20
92.276817
 42
0.0
 10
296.093585
 20
90.67681700000003
 42
0.0
 10
297.8255849999999
 20
90.67681700000003
 42
0.0
 10
297.8255849999999
 20
93.08953200000002
 42
-0.3193186334445323
 10
298.1614566861792
 20
93.56182629024963
 42
0.0
 10
298.1614569999999
 20
93.561826
 42
0.0
 10
298.3232296627422
 20
93.61804407410563
 42
0.0767608636239127
 10
297.1923186022178
 20
95.05864114732157
 42
0.0
 10
296.429457
 20
94.79353700000001
 42
0.0
 97
        8
330
143C1
330
143B6
330
143A9
330
143BE
330
143BB
330
143AC
330
143F9
330
143B0
 92
        7
 72
     1
 73
     1
 93
        6
 10
299.093585
 20
90.67681700000003
 42
0.1287861006004087
 10
298.3232296627422
 20
93.61804407410563
 42
0.0
 10
298.1614569999999
 20
93.561826
 42
0.0
 10
298.1614566861792
 20
93.56182629024963
 42
0.3193186334445323
 10
297.8255849999999
 20
93.08953200000002
 42
0.0
 10
297.8255849999999
 20
90.67681700000003
 42
0.0
 97
        5
330
143F9
330
143AC
330
143BB
330
143BE
330
143A9
 92
        7
 72
     0
 73
     1
 93
        4
 10
296.093585
 20
92.276817
 10
295.593585
 20
92.276817
 10
295.593585
 20
90.67681700000003
 10
296.093585
 20
90.67681700000003
 97
        4
330
143BF
330
143C0
330
143A9
330
143B6
 92
        7
 72
     1
 73
     1
 93
        3
 10
287.708585
 20
88.03073026672767
 42
-0.0217199509342917
 10
287.593585
 20
90.67681700000003
 42
0.0
 10
287.093585
 20
90.67681700000003
 42
0.1146809888924601
 97
        3
330
143A6
330
143A9
330
143F9
 92
        7
 72
     1
 73
     1
 93
        4
 10
287.593585
 20
90.67681700000003
 42
0.0217199509342917
 10
287.708585
 20
88.03073026672767
 42
0.0110176219184422
 10
287.830385
 20
87.79606609789134
 42
-0.023730438339747
 10
287.693585
 20
90.67681700000003
 42
0.0
 97
        4
330
143A6
330
143F9
330
143A7
330
143A9
 92
        7
 72
     1
 73
     1
 93
        4
 10
288.908585
 20
86.37730830713757
 42
-0.0365830669761836
 10
288.593585
 20
90.67681700000003
 42
0.0
 10
287.693585
 20
90.67681700000003
 42
0.023730438339747
 10
287.830385
 20
87.79606609789134
 42
0.0746623155869647
 97
        4
330
143A8
330
143A9
330
143A7
330
143F9
 92
        7
 72
     1
 73
     1
 93
        5
 10
288.593585
 20
90.67681700000003
 42
0.0365830669761836
 10
288.908585
 20
86.37730830713757
 42
0.1954073690835737
 10
293.093585
 20
84.67681700000003
 42
0.0
 10
293.093585
 20
85.42681700000003
 42
0.0
 10
293.093585
 20
90.67681700000003
 42
0.0
 97
        4
330
143A8
330
143F9
330
143F8
330
143A9
 92
        7
 72
     1
 73
     1
 93
        8
 10
293.174843
 20
85.42681700000003
 42
-0.414213562373095
 10
294.674843
 20
86.92681700000003
 42
0.0
 10
295.093585
 20
86.92681700000003
 42
0.414213562373095
 10
295.593585
 20
87.42681700000003
 42
0.0
 10
295.593585
 20
89.076817
 42
0.0
 10
295.593585
 20
90.67681700000003
 42
0.0
 10
293.093585
 20
90.67681700000003
 42
0.0
 10
293.093585
 20
85.42681700000003
 42
0.0
 97
        6
330
143B4
330
143B7
330
143B3
330
143C0
330
143A9
330
143F8
 92
        7
 72
     1
 73
     1
 93
       13
 10
296.093585
 20
89.076817
 42
0.0
 10
295.593585
 20
89.076817
 42
0.0
 10
295.593585
 20
87.42681700000003
 42
-0.414213562373095
 10
295.093585
 20
86.92681700000003
 42
0.0
 10
294.674843
 20
86.92681700000003
 42
0.414213562373095
 10
293.174843
 20
85.42681700000003
 42
0.0551892454187815
 10
293.2111715935927
 20
85.09869200237634
 42
0.0
 10
293.2111710910751
 20
85.09869204039724
 42
0.0042081345124611
 10
293.3085849999999
 20
84.68067032067339
 42
0.1809852523878508
 10
297.1923186022178
 20
86.29499285267845
 42
0.0
 10
296.429457
 20
86.56009699999998
 42
0.0
 10
296.4294566861793
 20
86.56009770975041
 42
-0.3193186334445322
 10
296.093585
 20
87.03239200000002
 42
0.0
 97
       10
330
143BC
330
143C0
330
143B3
330
143B7
330
143B4
330
143AD
330
143F9
330
143AF
330
143B8
330
143B6
 92
        7
 72
     0
 73
     1
 93
        4
 10
295.593585
 20
89.076817
 10
296.093585
 20
89.076817
 10
296.093585
 20
90.67681700000003
 10
295.593585
 20
90.67681700000003
 97
        4
330
143BC
330
143B6
330
143A9
330
143C0
 92
        7
 72
     1
 73
     1
 93
       11
 10
296.429457
 20
86.56009699999998
 42
0.0
 10
297.1923186022178
 20
86.29499285267845
 42
0.0767608636239131
 10
298.3232296627422
 20
87.73558992589439
 42
0.0
 10
298.1614569999999
 20
87.791808
 42
0.0
 10
298.1614566861792
 20
87.79180770975037
 42
-0.3193186334445322
 10
297.8255849999999
 20
88.26410199999998
 42
0.0
 10
297.8255849999999
 20
90.67681700000003
 42
0.0
 10
296.093585
 20
90.67681700000003
 42
0.0
 10
296.093585
 20
89.076817
 42
0.0
 10
296.093585
 20
87.03239200000002
 42
0.3193186334445322
 10
296.4294566861793
 20
86.56009770975041
 42
0.0
 97
        8
330
143AF
330
143F9
330
143AE
330
143BD
330
143BE
330
143A9
330
143B6
330
143B8
 92
        7
 72
     1
 73
     1
 93
        6
 10
297.8255849999999
 20
88.26410199999998
 42
0.3193186334445322
 10
298.1614566861792
 20
87.79180770975037
 42
0.0
 10
298.1614569999999
 20
87.791808
 42
0.0
 10
298.3232296627422
 20
87.73558992589439
 42
0.1287861006004108
 10
299.093585
 20
90.67681700000003
 42
0.0
 10
297.8255849999999
 20
90.67681700000003
 42
0.0
 97
        5
330
143BD
330
143AE
330
143F9
330
143A9
330
143BE
 75
     0
 76
     0
 52
45.0
 41
1.0
 77
     0
 78
     1
 53
45.0
 43
164.9514762497685
 44
89.27426962497253
 45
-0.7071067811865475
 46
0.7071067811865476
 79
     0
 47
0.0
 98
       18
 10
291.3103538879042
 20
95.29597429306607
 10
287.5641079931742
 20
91.69381477890259
 10
287.684273783217
 20
91.74690910924157
 10
288.9748947552121
 20
91.30309433132946
 10
293.9274556741368
 20
91.93149002303412
 10
294.7450404929042
 20
95.03831233435041
 10
296.6118591624232
 20
93.6211653151535
 10
298.2470287999581
 20
91.93149002303412
 10
295.9032856528248
 20
91.7543466456345
 10
287.4957884331662
 20
90.03741852622287
 10
287.6456789832736
 20
90.01016569893062
 10
288.1907355291185
 20
88.96093184817906
 10
290.5889843308364
 20
88.42950171598022
 10
294.063719810598
 20
88.3068639931651
 10
294.8676782157194
 20
86.26290194624649
 10
295.930538480117
 20
89.65587894413139
 10
296.7208704715922
 20
89.45148273943953
 10
298.2879080408965
 20
89.42422991214728
1001
ACAD
1010
0.0
1020
0.0
1030
0.0
1001
AcadAnnotative
1000
AnnotativeData
1002
{
1070
     1
1070
     0
1002
}
  0
CIRCLE
  5
143A6
102
{ACAD_REACTORS
330
1439C
330
143A2
102
}
330
142E0
100
AcDbEntity
  8
10
  6
Continuous
100
AcDbCircle
 10
318.093585
 20
90.676817
 30
0.0
 40
30.5
  0
CIRCLE
  5
143A7
102
{ACAD_REACTORS
330
1439C
330
143A2
102
}
330
142E0
100
AcDbEntity
  8
10
  6
Continuous
100
AcDbCircle
 10
318.093585
 20
90.676817
 30
0.0
 40
30.4
  0
ARC
  5
143A8
102
{ACAD_REACTORS
330
1439C
330
143A2
102
}
330
142E0
100
AcDbEntity
  8
10
  6
Continuous
100
AcDbCircle
 10
318.093585
 20
90.676817
 30
0.0
 40
29.5
100
AcDbArc
 50
173.565404
 51
6.434596
  0
LINE
  5
143A9
102
{ACAD_REACTORS
330
1439C
330
143A2
102
}
330
142E0
100
AcDbEntity
  8
7
100
AcDbLine
 10
275.864357
 20
90.676817
 30
0.0
 11
360.539659
 21
90.676817
 31
0.0
  0
ARC
  5
143AA
102
{ACAD_REACTORS
330
1439C
102
}
330
142E0
100
AcDbEntity
  8
10
  6
Continuous
100
AcDbCircle
 10
318.093585
 20
90.676817
 30
0.0
 40
13.0
100
AcDbArc
 50
38.632779000002
 51
141.367220999998
  0
ARC
  5
143AB
102
{ACAD_REACTORS
330
1439C
102
}
330
142E0
100
AcDbEntity
  8
10
  6
Continuous
100
AcDbCircle
 10
318.093585
 20
90.676817
 30
0.0
 40
13.0
100
AcDbArc
 50
218.632779000002
 51
321.367220999998
  0
LINE
  5
143AC
102
{ACAD_REACTORS
330
1439C
330
143A2
102
}
330
142E0
100
AcDbEntity
  8
10
  6
Continuous
100
AcDbLine
 10
315.051303
 20
99.431264
 30
0.0
 11
298.161457
 21
93.561826
 31
0.0
  0
ARC
  5
143AD
102
{ACAD_REACTORS
330
1439C
330
143A2
102
}
330
142E0
100
AcDbEntity
  8
10
  6
Continuous
100
AcDbCircle
 10
318.093585
 20
90.676817
 30
0.0
 40
25.5
100
AcDbArc
 50
192.635625
 51
347.364375
  0
LINE
  5
143AE
102
{ACAD_REACTORS
330
1439C
330
143A2
102
}
330
142E0
100
AcDbEntity
  8
10
  6
Continuous
100
AcDbLine
 10
315.051303
 20
81.92237
 30
0.0
 11
298.161457
 21
87.791808
 31
0.0
  0
LINE
  5
143AF
102
{ACAD_REACTORS
330
1439C
330
143A2
102
}
330
142E0
100
AcDbEntity
  8
10
  6
Continuous
100
AcDbLine
 10
296.429457
 20
86.560097
 30
0.0
 11
314.482762
 21
80.286343
 31
0.0
  0
LINE
  5
143B0
102
{ACAD_REACTORS
330
1439C
330
143A2
102
}
330
142E0
100
AcDbEntity
  8
10
  6
Continuous
100
AcDbLine
 10
314.482762
 20
101.067291
 30
0.0
 11
296.429457
 21
94.793537
 31
0.0
  0
LINE
  5
143B1
102
{ACAD_REACTORS
330
143A2
102
}
330
142E0
100
AcDbEntity
  8
10
  6
Continuous
100
AcDbLine
 10
295.093585
 20
94.426817
 30
0.0
 11
289.276273
 21
94.426817
 31
0.0
  0
ARC
  5
143B2
102
{ACAD_REACTORS
330
143A2
102
}
330
142E0
100
AcDbEntity
  8
10
  6
Continuous
100
AcDbCircle
 10
289.276273
 20
93.926817
 30
0.0
 40
0.5
100
AcDbArc
 50
90.0
 51
173.565403999999
  0
ARC
  5
143B3
102
{ACAD_REACTORS
330
143A2
102
}
330
142E0
100
AcDbEntity
  8
10
  6
Continuous
100
AcDbCircle
 10
295.093585
 20
87.426817
 30
0.0
 40
0.5
100
AcDbArc
 50
270.0
 51
0.0
  0
ARC
  5
143B4
102
{ACAD_REACTORS
330
143A2
102
}
330
142E0
100
AcDbEntity
  8
10
  6
Continuous
100
AcDbCircle
 10
294.674843
 20
85.426817
 30
0.0
 40
1.5
100
AcDbArc
 50
90.0
 51
192.635625
  0
LINE
  5
143B5
330
142E0
100
AcDbEntity
  8
10
  6
Continuous
100
AcDbLine
 10
297.825585
 20
87.908527
 30
0.0
 11
296.252528
 21
86.789849
 31
0.0
  0
LINE
  5
143B6
102
{ACAD_REACTORS
330
143A2
102
}
330
142E0
100
AcDbEntity
  8
10
  6
Continuous
100
AcDbLine
 10
296.093585
 20
94.321242
 30
0.0
 11
296.093585
 21
87.032392
 31
0.0
  0
LINE
  5
143B7
102
{ACAD_REACTORS
330
143A2
102
}
330
142E0
100
AcDbEntity
  8
10
  6
Continuous
100
AcDbLine
 10
295.093585
 20
86.926817
 30
0.0
 11
294.674843
 21
86.926817
 31
0.0
  0
ARC
  5
143B8
102
{ACAD_REACTORS
330
143A2
102
}
330
142E0
100
AcDbEntity
  8
10
  6
Continuous
100
AcDbCircle
 10
296.593585
 20
87.032392
 30
0.0
 40
0.5
100
AcDbArc
 50
180.0
 51
250.837005999993
  0
ARC
  5
143B9
102
{ACAD_REACTORS
330
143A2
102
}
330
142E0
100
AcDbEntity
  8
10
  6
Continuous
100
AcDbCircle
 10
295.093585
 20
93.926817
 30
0.0
 40
0.5
100
AcDbArc
 50
0.0
 51
90.0
  0
LINE
  5
143BA
330
142E0
100
AcDbEntity
  8
10
  6
Continuous
100
AcDbLine
 10
297.825585
 20
93.445107
 30
0.0
 11
296.252528
 21
94.563785
 31
0.0
  0
ARC
  5
143BB
102
{ACAD_REACTORS
330
143A2
102
}
330
142E0
100
AcDbEntity
  8
10
  6
Continuous
100
AcDbCircle
 10
298.325585
 20
93.089532
 30
0.0
 40
0.5
100
AcDbArc
 50
109.162994000007
 51
180.0
  0
LINE
  5
143BC
102
{ACAD_REACTORS
330
143A2
102
}
330
142E0
100
AcDbEntity
  8
10
  6
Continuous
100
AcDbLine
 10
296.093585
 20
89.076817
 30
0.0
 11
295.593585
 21
89.076817
 31
0.0
  0
ARC
  5
143BD
102
{ACAD_REACTORS
330
143A2
102
}
330
142E0
100
AcDbEntity
  8
10
  6
Continuous
100
AcDbCircle
 10
298.325585
 20
88.264102
 30
0.0
 40
0.5
100
AcDbArc
 50
180.0
 51
250.837005999993
  0
LINE
  5
143BE
102
{ACAD_REACTORS
330
143A2
102
}
330
142E0
100
AcDbEntity
  8
10
  6
Continuous
100
AcDbLine
 10
297.825585
 20
93.089532
 30
0.0
 11
297.825585
 21
88.264102
 31
0.0
  0
LINE
  5
143BF
102
{ACAD_REACTORS
330
143A2
102
}
330
142E0
100
AcDbEntity
  8
10
  6
Continuous
100
AcDbLine
 10
295.593585
 20
92.276817
 30
0.0
 11
296.093585
 21
92.276817
 31
0.0
  0
LINE
  5
143C0
102
{ACAD_REACTORS
330
143A2
102
}
330
142E0
100
AcDbEntity
  8
10
  6
Continuous
100
AcDbLine
 10
295.593585
 20
87.426817
 30
0.0
 11
295.593585
 21
93.926817
 31
0.0
  0
ARC
  5
143C1
102
{ACAD_REACTORS
330
143A2
102
}
330
142E0
100
AcDbEntity
  8
10
  6
Continuous
100
AcDbCircle
 10
296.593585
 20
94.321242
 30
0.0
 40
0.5
100
AcDbArc
 50
109.162994000007
 51
180.0
  0
LINE
  5
143C2
102
{ACAD_REACTORS
330
1439C
102
}
330
142E0
100
AcDbEntity
  8
10
  6
Continuous
100
AcDbLine
 10
338.025714
 20
93.561826
 30
0.0
 11
321.135868
 21
99.431264
 31
0.0
  0
LINE
  5
143C3
102
{ACAD_REACTORS
330
1439C
102
}
330
142E0
100
AcDbEntity
  8
10
  6
Continuous
100
AcDbLine
 10
339.757714
 20
94.793537
 30
0.0
 11
321.704408
 21
101.067291
 31
0.0
  0
LINE
  5
143C4
102
{ACAD_REACTORS
330
1439C
102
}
330
142E0
100
AcDbEntity
  8
10
  6
Continuous
100
AcDbLine
 10
338.025714
 20
87.791808
 30
0.0
 11
321.135868
 21
81.92237
 31
0.0
  0
LINE
  5
143C5
102
{ACAD_REACTORS
330
1439C
102
}
330
142E0
100
AcDbEntity
  8
10
  6
Continuous
100
AcDbLine
 10
321.704408
 20
80.286343
 30
0.0
 11
339.757714
 21
86.560097
 31
0.0
  0
ARC
  5
143C6
102
{ACAD_REACTORS
330
1439C
102
}
330
142E0
100
AcDbEntity
  8
10
  6
Continuous
100
AcDbCircle
 10
318.093585
 20
90.676817
 30
0.0
 40
9.268
100
AcDbArc
 50
250.837005999999
 51
289.162994
  0
ARC
  5
143C7
102
{ACAD_REACTORS
330
1439C
102
}
330
142E0
100
AcDbEntity
  8
10
  6
Continuous
100
AcDbCircle
 10
318.093585
 20
90.676817
 30
0.0
 40
11.0
100
AcDbArc
 50
250.837005999999
 51
289.162994000001
  0
LINE
  5
143C8
102
{ACAD_REACTORS
330
1439C
102
}
330
142E0
100
AcDbEntity
  8
10
  6
Continuous
100
AcDbLine
 10
346.910898
 20
94.426817
 30
0.0
 11
341.093585
 21
94.426817
 31
0.0
  0
ARC
  5
143C9
102
{ACAD_REACTORS
330
1439C
102
}
330
142E0
100
AcDbEntity
  8
10
  6
Continuous
100
AcDbCircle
 10
341.512328
 20
85.426817
 30
0.0
 40
1.5
100
AcDbArc
 50
347.364375
 51
90.0
  0
LINE
  5
143CA
330
142E0
100
AcDbEntity
  8
10
  6
Continuous
100
AcDbLine
 10
339.934643
 20
86.789849
 30
0.0
 11
338.361585
 21
87.908527
 31
0.0
  0
LINE
  5
143CB
102
{ACAD_REACTORS
330
1439C
102
}
330
142E0
100
AcDbEntity
  8
10
  6
Continuous
100
AcDbLine
 10
340.093585
 20
87.032392
 30
0.0
 11
340.093585
 21
94.321242
 31
0.0
  0
ARC
  5
143CC
102
{ACAD_REACTORS
330
1439C
102
}
330
142E0
100
AcDbEntity
  8
10
  6
Continuous
100
AcDbCircle
 10
341.093585
 20
87.426817
 30
0.0
 40
0.5
100
AcDbArc
 50
180.0
 51
270.0
  0
ARC
  5
143CD
102
{ACAD_REACTORS
330
1439C
102
}
330
142E0
100
AcDbEntity
  8
10
  6
Continuous
100
AcDbCircle
 10
339.593585
 20
87.032392
 30
0.0
 40
0.5
100
AcDbArc
 50
289.162993999994
 51
0.0
  0
LINE
  5
143CE
102
{ACAD_REACTORS
330
1439C
102
}
330
142E0
100
AcDbEntity
  8
10
  6
Continuous
100
AcDbLine
 10
341.093585
 20
86.926817
 30
0.0
 11
341.512328
 21
86.926817
 31
0.0
  0
LINE
  5
143CF
330
142E0
100
AcDbEntity
  8
10
  6
Continuous
100
AcDbLine
 10
339.934643
 20
94.563785
 30
0.0
 11
338.361585
 21
93.445107
 31
0.0
  0
ARC
  5
143D0
102
{ACAD_REACTORS
330
1439C
102
}
330
142E0
100
AcDbEntity
  8
10
  6
Continuous
100
AcDbCircle
 10
337.861585
 20
88.264102
 30
0.0
 40
0.5
100
AcDbArc
 50
289.162993999994
 51
0.0
  0
ARC
  5
143D1
102
{ACAD_REACTORS
330
1439C
102
}
330
142E0
100
AcDbEntity
  8
10
  6
Continuous
100
AcDbCircle
 10
337.861585
 20
93.089532
 30
0.0
 40
0.5
100
AcDbArc
 50
0.0
 51
70.837006000006
  0
LINE
  5
143D2
102
{ACAD_REACTORS
330
1439C
102
}
330
142E0
100
AcDbEntity
  8
10
  6
Continuous
100
AcDbLine
 10
338.361585
 20
88.264102
 30
0.0
 11
338.361585
 21
93.089532
 31
0.0
  0
LINE
  5
143D3
102
{ACAD_REACTORS
330
1439C
102
}
330
142E0
100
AcDbEntity
  8
10
  6
Continuous
100
AcDbLine
 10
340.093585
 20
92.276817
 30
0.0
 11
340.593585
 21
92.276817
 31
0.0
  0
LINE
  5
143D4
102
{ACAD_REACTORS
330
1439C
102
}
330
142E0
100
AcDbEntity
  8
10
  6
Continuous
100
AcDbLine
 10
340.593585
 20
89.076817
 30
0.0
 11
340.093585
 21
89.076817
 31
0.0
  0
ARC
  5
143D5
102
{ACAD_REACTORS
330
1439C
102
}
330
142E0
100
AcDbEntity
  8
10
  6
Continuous
100
AcDbCircle
 10
339.593585
 20
94.321242
 30
0.0
 40
0.5
100
AcDbArc
 50
0.0
 51
70.837006000006
  0
LINE
  5
143D6
102
{ACAD_REACTORS
330
1439C
102
}
330
142E0
100
AcDbEntity
  8
10
  6
Continuous
100
AcDbLine
 10
340.593585
 20
93.926817
 30
0.0
 11
340.593585
 21
87.426817
 31
0.0
  0
ARC
  5
143D7
102
{ACAD_REACTORS
330
1439C
102
}
330
142E0
100
AcDbEntity
  8
10
  6
Continuous
100
AcDbCircle
 10
341.093585
 20
93.926817
 30
0.0
 40
0.5
100
AcDbArc
 50
90.0
 51
180.0
  0
ARC
  5
143D8
102
{ACAD_REACTORS
330
1439C
102
}
330
142E0
100
AcDbEntity
  8
10
  6
Continuous
100
AcDbCircle
 10
346.910898
 20
93.926817
 30
0.0
 40
0.5
100
AcDbArc
 50
6.434596
 51
90.0
  0
ARC
  5
143D9
102
{ACAD_REACTORS
330
1439C
102
}
330
142E0
100
AcDbEntity
  8
10
  6
Continuous
100
AcDbCircle
 10
318.093585
 20
90.676817
 30
0.0
 40
9.268
100
AcDbArc
 50
70.837005999999
 51
109.162994000001
  0
ARC
  5
143DA
102
{ACAD_REACTORS
330
1439C
102
}
330
142E0
100
AcDbEntity
  8
10
  6
Continuous
100
AcDbCircle
 10
318.093585
 20
90.676817
 30
0.0
 40
11.0
100
AcDbArc
 50
70.837005999999
 51
109.162994000001
  0
DIMENSION
  5
143DB
330
142E0
100
AcDbEntity
  8
6
100
AcDbDimension
280
     0
  2
*D125
 10
203.542401
 20
6.194455
 30
0.0
 11
178.542401
 21
9.197232777778
 31
0.0
 70
    32
  1
30~<>
 71
     5
 42
-1.0
 73
     0
 74
     0
 75
     0
  3
GEN-ISO
100
AcDbAlignedDimension
 13
153.542401
 23
53.176817
 33
0.0
 14
203.542401
 24
53.176817
 34
0.0
100
AcDbRotatedDimension
  0
DIMENSION
  5
143E8
330
142E0
100
AcDbEntity
  8
6
100
AcDbDimension
280
     0
  2
*D126
 10
143.542401
 20
6.194455
 30
0.0
 11
148.542401
 21
9.194455
 31
0.0
 70
    32
 71
     5
 42
-1.0
 73
     0
 74
     0
 75
     0
  3
GEN-ISO
100
AcDbAlignedDimension
 13
153.542401
 23
53.176817
 33
0.0
 14
143.542401
 24
57.676817
 34
0.0
100
AcDbRotatedDimension
  0
LINE
  5
143F5
102
{ACAD_REACTORS
330
1439C
330
1441A
102
}
330
142E0
100
AcDbEntity
  8
7
100
AcDbLine
 10
343.093585
 20
78.655789459551
 30
0.0
 11
343.093585
 21
102.697844540449
 31
0.0
  0
CIRCLE
  5
143F6
102
{ACAD_REACTORS
330
1439C
330
1440B
102
}
330
142E0
100
AcDbEntity
  8
4P
100
AcDbCircle
 10
343.093585
 20
90.676817
 30
0.0
 40
6.0
  0
CIRCLE
  5
143F7
102
{ACAD_REACTORS
330
1439C
330
143FC
102
}
330
142E0
100
AcDbEntity
  8
4P
100
AcDbCircle
 10
318.093585
 20
90.676817
 30
0.0
 40
15.0
  0
LINE
  5
143F8
102
{ACAD_REACTORS
330
143A2
330
1441A
102
}
330
142E0
100
AcDbEntity
  8
7
100
AcDbLine
 10
293.093585
 20
78.655789459551
 30
0.0
 11
293.093585
 21
102.697844540449
 31
0.0
  0
CIRCLE
  5
143F9
102
{ACAD_REACTORS
330
143A2
102
}
330
142E0
100
AcDbEntity
  8
4P
100
AcDbCircle
 10
293.093585
 20
90.676817
 30
0.0
 40
6.0
  0
DIMENSION
  5
143FA
102
{ACAD_REACTORS
330
143FC
102
}
102
{ACAD_XDICTIONARY
360
143FB
102
}
330
142E0
100
AcDbEntity
  8
6
100
AcDbDimension
280
     0
  2
*D127
 10
327.452936798099
 20
78.954934304826
 30
0.0
 11
270.631935101104
 21
138.053932307013
 31
0.0
 70
   163
  1
\A1;%%C30貫通穴
 71
     5
 42
-1.0
 73
     0
 74
     0
 75
     0
  3
RADIUS-NORMAL
100
AcDbDiametricDimension
 15
308.734233201901
 25
102.398699695174
 35
0.0
 40
0.0
  0
DIMENSION
  5
14409
102
{ACAD_REACTORS
330
1440B
102
}
102
{ACAD_XDICTIONARY
360
1440A
102
}
330
142E0
100
AcDbEntity
  8
6
100
AcDbDimension
280
     0
  2
*D128
 10
340.067671937026
 20
85.495711892465
 30
0.0
 11
372.990734785091
 21
120.978676713791
 31
0.0
 70
   163
  1
\A1;2-%%C12貫通穴
 71
     5
 42
-1.0
 73
     0
 74
     0
 75
     0
  3
RADIUS-NORMAL
100
AcDbDiametricDimension
 15
346.119498062973
 25
95.857922107535
 35
0.0
 40
0.0
  0
DIMENSION
  5
14418
102
{ACAD_REACTORS
330
1441A
102
}
102
{ACAD_XDICTIONARY
360
14419
102
}
330
142E0
100
AcDbEntity
  8
6
100
AcDbDimension
280
     0
  2
*D129
 10
293.093585
 20
22.802400945522
 30
0.0
 11
318.093585
 21
25.8051787233
 31
0.0
 70
    32
  1
\A1;44　又は　50
 71
     5
 42
-1.0
 73
     0
 74
     0
 75
     0
  3
RADIUS-NORMAL
100
AcDbAlignedDimension
 13
343.093585
 23
78.655789459551
 33
0.0
 14
293.093585
 24
78.655789459551
 34
0.0
100
AcDbRotatedDimension
  0
TEXT
  5
14427
330
142E0
100
AcDbEntity
  8
6
100
AcDbText
 10
309.067855261223
 20
17.738668763392
 30
0.0
 40
4.0
  1
取付脚ピッチ
 41
0.7
  7
EXTFONT
100
AcDbText
  0
LINE
  5
14428
330
142E0
100
AcDbEntity
  8
10
  6
Continuous
100
AcDbLine
 10
192.042401
 20
94.176817
 30
0.0
 11
153.542401
 21
94.176817
 31
0.0
  0
ENDBLK
  5
1442A
330
142E0
100
AcDbEntity
  8
0
100
AcDbBlockEnd
  0
BLOCK
  5
1442B
330
14353
100
AcDbEntity
  8
0
100
AcDbBlockBegin
  2
*D122
 70
     1
 10
0.0
 20
0.0
 30
0.0
  3
*D122
  1

  0
LINE
  5
14355
330
14353
100
AcDbEntity
  8
6
 62
     0
370
    -2
100
AcDbLine
 10
204.542401
 20
53.176817
 30
0.0
 11
230.542401
 21
53.176817
 31
0.0
  0
LINE
  5
14356
330
14353
100
AcDbEntity
  8
6
 62
     0
370
    -2
100
AcDbLine
 10
204.542401
 20
128.176817
 30
0.0
 11
230.542401
 21
128.176817
 31
0.0
  0
LINE
  5
14357
330
14353
100
AcDbEntity
  8
6
 62
     0
370
    -2
100
AcDbLine
 10
228.542401
 20
55.676817
 30
0.0
 11
228.542401
 21
125.676817
 31
0.0
  0
INSERT
  5
14358
330
14353
100
AcDbEntity
  8
6
 62
     0
370
    -2
100
AcDbBlockReference
  2
_Open30
 10
228.542401
 20
53.176817
 30
0.0
 41
2.5
 42
2.5
 43
2.5
 50
270.0
  0
INSERT
  5
14359
330
14353
100
AcDbEntity
  8
6
 62
     0
370
    -2
100
AcDbBlockReference
  2
_Open30
 10
228.542401
 20
128.176817
 30
0.0
 41
2.5
 42
2.5
 43
2.5
 50
90.0
  0
MTEXT
  5
1435A
330
14353
100
AcDbEntity
  8
6
 62
     2
100
AcDbMText
 10
225.539623222222
 20
90.676817
 30
0.0
 40
4.0
 41
0.0
 46
0.0
 71
     5
 72
     1
  1
\A1;%%C75
  7
EXTFONT
 11
0.0
 21
1.0
 31
0.0
 73
     1
 44
1.0
  0
POINT
  5
1435B
330
14353
100
AcDbEntity
  8
DEFPOINTS
 62
     0
100
AcDbPoint
 10
203.542401
 20
53.176817
 30
0.0
  0
POINT
  5
1435C
330
14353
100
AcDbEntity
  8
DEFPOINTS
 62
     0
100
AcDbPoint
 10
203.542401
 20
128.176817
 30
0.0
  0
POINT
  5
1435D
330
14353
100
AcDbEntity
  8
DEFPOINTS
 62
     0
100
AcDbPoint
 10
228.542401
 20
128.176817
 30
0.0
  0
ENDBLK
  5
1442C
330
14353
100
AcDbEntity
  8
0
100
AcDbBlockEnd
  0
BLOCK
  5
1442D
330
14360
100
AcDbEntity
  8
0
100
AcDbBlockBegin
  2
*D123
 70
     1
 10
0.0
 20
0.0
 30
0.0
  3
*D123
  1

  0
LINE
  5
14362
330
14360
100
AcDbEntity
  8
6
 62
     0
370
    -2
100
AcDbLine
 10
152.542401
 20
53.176817
 30
0.0
 11
126.542401
 21
53.176817
 31
0.0
  0
LINE
  5
14363
330
14360
100
AcDbEntity
  8
6
 62
     0
370
    -2
100
AcDbLine
 10
152.542401
 20
128.176817
 30
0.0
 11
126.542401
 21
128.176817
 31
0.0
  0
LINE
  5
14364
330
14360
100
AcDbEntity
  8
6
 62
     0
370
    -2
100
AcDbLine
 10
128.542401
 20
55.676817
 30
0.0
 11
128.542401
 21
125.676817
 31
0.0
  0
INSERT
  5
14365
330
14360
100
AcDbEntity
  8
6
 62
     0
370
    -2
100
AcDbBlockReference
  2
_Open30
 10
128.542401
 20
53.176817
 30
0.0
 41
2.5
 42
2.5
 43
2.5
 50
270.0
  0
INSERT
  5
14366
330
14360
100
AcDbEntity
  8
6
 62
     0
370
    -2
100
AcDbBlockReference
  2
_Open30
 10
128.542401
 20
128.176817
 30
0.0
 41
2.5
 42
2.5
 43
2.5
 50
90.0
  0
MTEXT
  5
14367
330
14360
100
AcDbEntity
  8
6
 62
     2
100
AcDbMText
 10
125.539623222222
 20
90.676817
 30
0.0
 40
4.0
 41
0.0
 46
0.0
 71
     5
 72
     1
  1
\A1;%%C75
  7
EXTFONT
 11
0.0
 21
1.0
 31
0.0
 73
     1
 44
1.0
  0
POINT
  5
14368
330
14360
100
AcDbEntity
  8
DEFPOINTS
 62
     0
100
AcDbPoint
 10
153.542401
 20
53.176817
 30
0.0
  0
POINT
  5
14369
330
14360
100
AcDbEntity
  8
DEFPOINTS
 62
     0
100
AcDbPoint
 10
153.542401
 20
128.176817
 30
0.0
  0
POINT
  5
1436A
330
14360
100
AcDbEntity
  8
DEFPOINTS
 62
     0
100
AcDbPoint
 10
128.542401
 20
128.176817
 30
0.0
  0
ENDBLK
  5
1442E
330
14360
100
AcDbEntity
  8
0
100
AcDbBlockEnd
  0
BLOCK
  5
1442F
330
14372
100
AcDbEntity
  8
0
100
AcDbBlockBegin
  2
*D124
 70
     1
 10
0.0
 20
0.0
 30
0.0
  3
*D124
  1

  0
LINE
  5
14374
330
14372
100
AcDbEntity
  8
6
 62
     0
370
    -2
100
AcDbLine
 10
213.542401
 20
56.676817
 30
0.0
 11
213.542401
 21
4.194455
 31
0.0
  0
LINE
  5
14375
330
14372
100
AcDbEntity
  8
6
 62
     0
370
    -2
100
AcDbLine
 10
203.542401
 20
56.676817
 30
0.0
 11
203.542401
 21
4.194455
 31
0.0
  0
LINE
  5
14376
330
14372
100
AcDbEntity
  8
6
 62
     0
370
    -2
100
AcDbLine
 10
211.042401
 20
6.194455
 30
0.0
 11
206.042401
 21
6.194455
 31
0.0
  0
INSERT
  5
14377
330
14372
100
AcDbEntity
  8
6
 62
     0
370
    -2
100
AcDbBlockReference
  2
_Open30
 10
213.542401
 20
6.194455
 30
0.0
 41
2.5
 42
2.5
 43
2.5
  0
INSERT
  5
14378
330
14372
100
AcDbEntity
  8
6
 62
     0
370
    -2
100
AcDbBlockReference
  2
_Open30
 10
203.542401
 20
6.194455
 30
0.0
 41
2.5
 42
2.5
 43
2.5
 50
180.0
  0
MTEXT
  5
14379
330
14372
100
AcDbEntity
  8
6
 62
     2
100
AcDbMText
 10
208.542401
 20
9.194455
 30
0.0
 40
4.0
 41
0.0
 46
0.0
 71
     5
 72
     1
  1
\A1;10
  7
EXTFONT
 73
     1
 44
1.0
  0
POINT
  5
1437A
330
14372
100
AcDbEntity
  8
DEFPOINTS
 62
     0
100
AcDbPoint
 10
213.542401
 20
57.676817
 30
0.0
  0
POINT
  5
1437B
330
14372
100
AcDbEntity
  8
DEFPOINTS
 62
     0
100
AcDbPoint
 10
203.542401
 20
57.676817
 30
0.0
  0
POINT
  5
1437C
330
14372
100
AcDbEntity
  8
DEFPOINTS
 62
     0
100
AcDbPoint
 10
203.542401
 20
6.194455
 30
0.0
  0
ENDBLK
  5
14430
330
14372
100
AcDbEntity
  8
0
100
AcDbBlockEnd
  0
BLOCK
  5
14431
330
143DC
100
AcDbEntity
  8
0
100
AcDbBlockBegin
  2
*D125
 70
     1
 10
0.0
 20
0.0
 30
0.0
  3
*D125
  1

  0
LINE
  5
143DE
330
143DC
100
AcDbEntity
  8
6
 62
     0
370
    -2
100
AcDbLine
 10
153.542401
 20
52.176817
 30
0.0
 11
153.542401
 21
4.194455
 31
0.0
  0
LINE
  5
143DF
330
143DC
100
AcDbEntity
  8
6
 62
     0
370
    -2
100
AcDbLine
 10
203.542401
 20
52.176817
 30
0.0
 11
203.542401
 21
4.194455
 31
0.0
  0
LINE
  5
143E0
330
143DC
100
AcDbEntity
  8
6
 62
     0
370
    -2
100
AcDbLine
 10
156.042401
 20
6.194455
 30
0.0
 11
201.042401
 21
6.194455
 31
0.0
  0
INSERT
  5
143E1
330
143DC
100
AcDbEntity
  8
6
 62
     0
370
    -2
100
AcDbBlockReference
  2
_Open30
 10
153.542401
 20
6.194455
 30
0.0
 41
2.5
 42
2.5
 43
2.5
 50
180.0
  0
INSERT
  5
143E2
330
143DC
100
AcDbEntity
  8
6
 62
     0
370
    -2
100
AcDbBlockReference
  2
_Open30
 10
203.542401
 20
6.194455
 30
0.0
 41
2.5
 42
2.5
 43
2.5
  0
MTEXT
  5
143E3
330
143DC
100
AcDbEntity
  8
6
 62
     2
100
AcDbMText
 10
178.542401
 20
9.197232777778
 30
0.0
 40
4.0
 41
0.0
 46
0.0
 71
     5
 72
     1
  1
\A1;30~50
  7
EXTFONT
 73
     1
 44
1.0
  0
POINT
  5
143E4
330
143DC
100
AcDbEntity
  8
DEFPOINTS
 62
     0
100
AcDbPoint
 10
153.542401
 20
53.176817
 30
0.0
  0
POINT
  5
143E5
330
143DC
100
AcDbEntity
  8
DEFPOINTS
 62
     0
100
AcDbPoint
 10
203.542401
 20
53.176817
 30
0.0
  0
POINT
  5
143E6
330
143DC
100
AcDbEntity
  8
DEFPOINTS
 62
     0
100
AcDbPoint
 10
203.542401
 20
6.194455
 30
0.0
  0
ENDBLK
  5
14432
330
143DC
100
AcDbEntity
  8
0
100
AcDbBlockEnd
  0
BLOCK
  5
14433
330
143E9
100
AcDbEntity
  8
0
100
AcDbBlockBegin
  2
*D126
 70
     1
 10
0.0
 20
0.0
 30
0.0
  3
*D126
  1

  0
LINE
  5
143EB
330
143E9
100
AcDbEntity
  8
6
 62
     0
370
    -2
100
AcDbLine
 10
153.542401
 20
52.176817
 30
0.0
 11
153.542401
 21
4.194455
 31
0.0
  0
LINE
  5
143EC
330
143E9
100
AcDbEntity
  8
6
 62
     0
370
    -2
100
AcDbLine
 10
143.542401
 20
56.676817
 30
0.0
 11
143.542401
 21
4.194455
 31
0.0
  0
LINE
  5
143ED
330
143E9
100
AcDbEntity
  8
6
 62
     0
370
    -2
100
AcDbLine
 10
151.042401
 20
6.194455
 30
0.0
 11
146.042401
 21
6.194455
 31
0.0
  0
INSERT
  5
143EE
330
143E9
100
AcDbEntity
  8
6
 62
     0
370
    -2
100
AcDbBlockReference
  2
_Open30
 10
153.542401
 20
6.194455
 30
0.0
 41
2.5
 42
2.5
 43
2.5
  0
INSERT
  5
143EF
330
143E9
100
AcDbEntity
  8
6
 62
     0
370
    -2
100
AcDbBlockReference
  2
_Open30
 10
143.542401
 20
6.194455
 30
0.0
 41
2.5
 42
2.5
 43
2.5
 50
180.0
  0
MTEXT
  5
143F0
330
143E9
100
AcDbEntity
  8
6
 62
     2
100
AcDbMText
 10
148.542401
 20
9.194455
 30
0.0
 40
4.0
 41
0.0
 46
0.0
 71
     5
 72
     1
  1
\A1;10
  7
EXTFONT
 73
     1
 44
1.0
  0
POINT
  5
143F1
330
143E9
100
AcDbEntity
  8
DEFPOINTS
 62
     0
100
AcDbPoint
 10
153.542401
 20
53.176817
 30
0.0
  0
POINT
  5
143F2
330
143E9
100
AcDbEntity
  8
DEFPOINTS
 62
     0
100
AcDbPoint
 10
143.542401
 20
57.676817
 30
0.0
  0
POINT
  5
143F3
330
143E9
100
AcDbEntity
  8
DEFPOINTS
 62
     0
100
AcDbPoint
 10
143.542401
 20
6.194455
 30
0.0
  0
ENDBLK
  5
14434
330
143E9
100
AcDbEntity
  8
0
100
AcDbBlockEnd
  0
BLOCK
  5
14435
330
143FD
100
AcDbEntity
  8
0
100
AcDbBlockBegin
  2
*D127
 70
     1
 10
0.0
 20
0.0
 30
0.0
  3
*D127
  1

  0
LINE
  5
143FF
330
143FD
100
AcDbEntity
  8
6
 62
     0
370
    -2
100
AcDbLine
 10
261.998601767771
 20
138.053932307013
 30
0.0
 11
280.265268434437
 21
138.053932307013
 31
0.0
  0
LINE
  5
14400
330
143FD
100
AcDbEntity
  8
6
 62
     0
370
    -2
100
AcDbLine
 10
280.265268434437
 20
138.053932307013
 30
0.0
 11
307.174341235551
 21
104.352346811036
 31
0.0
  0
LINE
  5
14401
330
143FD
100
AcDbEntity
  8
6
 62
     0
370
    -2
100
AcDbLine
 10
329.012828764449
 20
77.001287188964
 30
0.0
 11
330.572720730799
 21
75.047640073101
 31
0.0
  0
MTEXT
  5
14402
330
143FD
100
AcDbEntity
  8
6
 62
     2
100
AcDbMText
 10
270.631935101104
 20
141.053932307013
 30
0.0
 40
4.0
 41
0.0
 46
0.0
 71
     5
 72
     1
  1
\A1;\A1;%%C30貫通穴
  7
EXTFONT
 73
     1
 44
1.0
  0
LINE
  5
14403
330
143FD
100
AcDbEntity
  8
6
 62
     0
370
    -2
100
AcDbLine
 10
327.452936798099
 20
78.954934304826
 30
0.0
 11
308.734233201901
 21
102.398699695174
 31
0.0
  0
INSERT
  5
14404
330
143FD
100
AcDbEntity
  8
6
 62
     0
370
    -2
100
AcDbBlockReference
  2
_Open30
 10
327.452936798099
 20
78.954934304826
 30
0.0
 41
2.5
 42
2.5
 43
2.5
 50
128.605659257873
  0
INSERT
  5
14405
330
143FD
100
AcDbEntity
  8
6
 62
     0
370
    -2
100
AcDbBlockReference
  2
_Open30
 10
308.734233201901
 20
102.398699695174
 30
0.0
 41
2.5
 42
2.5
 43
2.5
 50
308.605659257873
  0
POINT
  5
14406
330
143FD
100
AcDbEntity
  8
DEFPOINTS
 62
     0
100
AcDbPoint
 10
308.734233201901
 20
102.398699695174
 30
0.0
  0
POINT
  5
14407
330
143FD
100
AcDbEntity
  8
DEFPOINTS
 62
     0
100
AcDbPoint
 10
327.452936798099
 20
78.954934304826
 30
0.0
  0
ENDBLK
  5
14436
330
143FD
100
AcDbEntity
  8
0
100
AcDbBlockEnd
  0
BLOCK
  5
14437
330
1440C
100
AcDbEntity
  8
0
100
AcDbBlockBegin
  2
*D128
 70
     1
 10
0.0
 20
0.0
 30
0.0
  3
*D128
  1

  0
LINE
  5
1440E
330
1440C
100
AcDbEntity
  8
6
 62
     0
370
    -2
100
AcDbLine
 10
384.190734785091
 20
120.978676713791
 30
0.0
 11
360.790734785091
 21
120.978676713791
 31
0.0
  0
LINE
  5
1440F
330
1440C
100
AcDbEntity
  8
6
 62
     0
370
    -2
100
AcDbLine
 10
360.790734785091
 20
120.978676713791
 30
0.0
 11
347.380295172546
 21
98.016715902341
 31
0.0
  0
LINE
  5
14410
330
1440C
100
AcDbEntity
  8
6
 62
     0
370
    -2
100
AcDbLine
 10
338.806874827454
 20
83.336918097659
 30
0.0
 11
337.546077717882
 21
81.178124302852
 31
0.0
  0
MTEXT
  5
14411
330
1440C
100
AcDbEntity
  8
6
 62
     2
100
AcDbMText
 10
372.990734785091
 20
123.978676713791
 30
0.0
 40
4.0
 41
0.0
 46
0.0
 71
     5
 72
     1
  1
\A1;\A1;2-%%C12貫通穴
  7
EXTFONT
 73
     1
 44
1.0
  0
LINE
  5
14412
330
1440C
100
AcDbEntity
  8
6
 62
     0
370
    -2
100
AcDbLine
 10
340.067671937026
 20
85.495711892465
 30
0.0
 11
346.119498062973
 21
95.857922107535
 31
0.0
  0
INSERT
  5
14413
330
1440C
100
AcDbEntity
  8
6
 62
     0
370
    -2
100
AcDbBlockReference
  2
_Open30
 10
340.067671937026
 20
85.495711892465
 30
0.0
 41
2.5
 42
2.5
 43
2.5
 50
59.713853867007
  0
INSERT
  5
14414
330
1440C
100
AcDbEntity
  8
6
 62
     0
370
    -2
100
AcDbBlockReference
  2
_Open30
 10
346.119498062973
 20
95.857922107535
 30
0.0
 41
2.5
 42
2.5
 43
2.5
 50
239.713853867007
  0
POINT
  5
14415
330
1440C
100
AcDbEntity
  8
DEFPOINTS
 62
     0
100
AcDbPoint
 10
346.119498062973
 20
95.857922107535
 30
0.0
  0
POINT
  5
14416
330
1440C
100
AcDbEntity
  8
DEFPOINTS
 62
     0
100
AcDbPoint
 10
340.067671937026
 20
85.495711892465
 30
0.0
  0
ENDBLK
  5
14438
330
1440C
100
AcDbEntity
  8
0
100
AcDbBlockEnd
  0
BLOCK
  5
14439
330
1441B
100
AcDbEntity
  8
0
100
AcDbBlockBegin
  2
*D129
 70
     1
 10
0.0
 20
0.0
 30
0.0
  3
*D129
  1

  0
LINE
  5
1441D
330
1441B
100
AcDbEntity
  8
6
 62
     0
370
    -2
100
AcDbLine
 10
343.093585
 20
77.655789459551
 30
0.0
 11
343.093585
 21
20.802400945522
 31
0.0
  0
LINE
  5
1441E
330
1441B
100
AcDbEntity
  8
6
 62
     0
370
    -2
100
AcDbLine
 10
293.093585
 20
77.655789459551
 30
0.0
 11
293.093585
 21
20.802400945522
 31
0.0
  0
LINE
  5
1441F
330
1441B
100
AcDbEntity
  8
6
 62
     0
370
    -2
100
AcDbLine
 10
340.593585
 20
22.802400945522
 30
0.0
 11
295.593585
 21
22.802400945522
 31
0.0
  0
INSERT
  5
14420
330
1441B
100
AcDbEntity
  8
6
 62
     0
370
    -2
100
AcDbBlockReference
  2
_Open30
 10
343.093585
 20
22.802400945522
 30
0.0
 41
2.5
 42
2.5
 43
2.5
  0
INSERT
  5
14421
330
1441B
100
AcDbEntity
  8
6
 62
     0
370
    -2
100
AcDbBlockReference
  2
_Open30
 10
293.093585
 20
22.802400945522
 30
0.0
 41
2.5
 42
2.5
 43
2.5
 50
180.0
  0
MTEXT
  5
14422
330
1441B
100
AcDbEntity
  8
6
 62
     2
100
AcDbMText
 10
318.093585
 20
25.8051787233
 30
0.0
 40
4.0
 41
0.0
 46
0.0
 71
     5
 72
     1
  1
\A1;\A1;44　又は　50
  7
EXTFONT
 73
     1
 44
1.0
  0
POINT
  5
14423
330
1441B
100
AcDbEntity
  8
DEFPOINTS
 62
     0
100
AcDbPoint
 10
343.093585
 20
78.655789459551
 30
0.0
  0
POINT
  5
14424
330
1441B
100
AcDbEntity
  8
DEFPOINTS
 62
     0
100
AcDbPoint
 10
293.093585
 20
78.655789459551
 30
0.0
  0
POINT
  5
14425
330
1441B
100
AcDbEntity
  8
DEFPOINTS
 62
     0
100
AcDbPoint
 10
293.093585
 20
22.802400945522
 30
0.0
  0
ENDBLK
  5
1443A
330
1441B
100
AcDbEntity
  8
0
100
AcDbBlockEnd
  0
BLOCK
  5
1489D
330
1486F
100
AcDbEntity
  8
0
100
AcDbBlockBegin
  2
AD60158
 70
     0
 10
0.0
 20
0.0
 30
0.0
  3
AD60158
  1

  0
TEXT
  5
1489C
330
1486F
100
AcDbEntity
  8
5
100
AcDbText
 10
-0.7
 20
0.0
 30
0.0
 40
5.0
  1
※ 使用する錠はISD、ISシリーズと共通ですので切欠は各シリーズをご参照ください。
 41
0.7
  7
EXTFONT
100
AcDbText
  0
ENDBLK
  5
1489E
330
1486F
100
AcDbEntity
  8
0
100
AcDbBlockEnd
  0
BLOCK
  5
148CF
330
148A1
100
AcDbEntity
  8
0
100
AcDbBlockBegin
  2
AD60168
 70
     0
 10
0.0
 20
0.0
 30
0.0
  3
AD60168
  1

  0
TEXT
  5
148CE
330
148A1
100
AcDbEntity
  8
5
100
AcDbText
 10
-0.7
 20
0.0
 30
0.0
 40
5.0
  1
※　ISD-60、IS-60の錠に使用した場合、取付脚は上下になります。
 41
0.7
  7
EXTFONT
100
AcDbText
  0
ENDBLK
  5
148D0
330
148A1
100
AcDbEntity
  8
0
100
AcDbBlockEnd
  0
ENDSEC
  0
SECTION
  2
ENTITIES
  0
LINE
  5
1347C
330
18
100
AcDbEntity
  8
7
100
AcDbLine
 10
-18.881654163939
 20
261.652096925177
 30
0.0
 11
-18.881654163939
 21
353.292963925177
 31
0.0
  0
ARC
  5
1347D
330
18
100
AcDbEntity
  8
10
  6
Continuous
100
AcDbCircle
 10
-18.881654163939
 20
307.199337925177
 30
0.0
 40
29.5
100
AcDbArc
 50
173.565404
 51
6.434596
  0
CIRCLE
  5
1347E
330
18
100
AcDbEntity
  8
10
  6
Continuous
100
AcDbCircle
 10
-18.881654163939
 20
307.199337925177
 30
0.0
 40
37.5
  0
CIRCLE
  5
1347F
330
18
100
AcDbEntity
  8
10
  6
Continuous
100
AcDbCircle
 10
-18.881654163939
 20
307.199337925177
 30
0.0
 40
30.5
  0
CIRCLE
  5
13480
330
18
100
AcDbEntity
  8
10
  6
Continuous
100
AcDbCircle
 10
-18.881654163939
 20
307.199337925177
 30
0.0
 40
30.4
  0
LINE
  5
13481
330
18
100
AcDbEntity
  8
7
100
AcDbLine
 10
-62.949614163939
 20
307.199337925177
 30
0.0
 11
23.737691836061
 21
307.199337925177
 31
0.0
  0
ARC
  5
13482
330
18
100
AcDbEntity
  8
10
  6
Continuous
100
AcDbCircle
 10
-18.881654163939
 20
307.199337925177
 30
0.0
 40
13.0
100
AcDbArc
 50
218.632779000002
 51
321.367220999998
  0
ARC
  5
13483
330
18
100
AcDbEntity
  8
10
  6
Continuous
100
AcDbCircle
 10
-18.881654163939
 20
307.199337925177
 30
0.0
 40
13.0
100
AcDbArc
 50
38.632779000002
 51
141.367220999998
  0
LINE
  5
13484
330
18
100
AcDbEntity
  8
10
  6
Continuous
100
AcDbLine
 10
-15.270831163939
 20
317.589811925177
 30
0.0
 11
2.782473836061
 21
311.316057925177
 31
0.0
  0
LINE
  5
13485
330
18
100
AcDbEntity
  8
10
  6
Continuous
100
AcDbLine
 10
2.782473836061
 20
303.082617925177
 30
0.0
 11
-15.270831163939
 21
296.808863925177
 31
0.0
  0
LINE
  5
13486
330
18
100
AcDbEntity
  8
10
  6
Continuous
100
AcDbLine
 10
-15.839372163939
 20
298.444890925177
 30
0.0
 11
1.050473836061
 21
304.314328925177
 31
0.0
  0
LINE
  5
13487
330
18
100
AcDbEntity
  8
10
  6
Continuous
100
AcDbLine
 10
1.050473836061
 20
310.084346925177
 30
0.0
 11
-15.839372163939
 21
315.953784925177
 31
0.0
  0
ARC
  5
13488
330
18
100
AcDbEntity
  8
10
  6
Continuous
100
AcDbCircle
 10
-18.881654163939
 20
307.199337925177
 30
0.0
 40
25.5
100
AcDbArc
 50
192.635625
 51
347.364375
  0
LINE
  5
1348A
330
18
100
AcDbEntity
  8
10
  6
Continuous
100
AcDbLine
 10
-40.545782163939
 20
311.316057925177
 30
0.0
 11
-22.492477163939
 21
317.589811925177
 31
0.0
  0
LINE
  5
1348B
330
18
100
AcDbEntity
  8
10
  6
Continuous
100
AcDbLine
 10
-21.923936163939
 20
315.953784925177
 30
0.0
 11
-38.813782163939
 21
310.084346925177
 31
0.0
  0
LINE
  5
1348C
330
18
100
AcDbEntity
  8
10
  6
Continuous
100
AcDbLine
 10
-22.492477163939
 20
296.808863925177
 30
0.0
 11
-40.545782163939
 21
303.082617925177
 31
0.0
  0
LINE
  5
1348D
330
18
100
AcDbEntity
  8
10
  6
Continuous
100
AcDbLine
 10
-38.813782163939
 20
304.314328925177
 30
0.0
 11
-21.923936163939
 21
298.444890925177
 31
0.0
  0
LINE
  5
1348E
330
18
100
AcDbEntity
  8
10
  6
Continuous
100
AcDbLine
 10
-41.881654163939
 20
310.949337925177
 30
0.0
 11
-47.698967163939
 21
310.949337925177
 31
0.0
  0
ARC
  5
1348F
330
18
100
AcDbEntity
  8
10
  6
Continuous
100
AcDbCircle
 10
-47.698967163939
 20
310.449337925177
 30
0.0
 40
0.5
100
AcDbArc
 50
90.0
 51
173.565404
  0
ARC
  5
13491
330
18
100
AcDbEntity
  8
10
  6
Continuous
100
AcDbCircle
 10
-41.881654163939
 20
303.949337925177
 30
0.0
 40
0.5
100
AcDbArc
 50
270.0
 51
0.0
  0
ARC
  5
13492
330
18
100
AcDbEntity
  8
10
  6
Continuous
100
AcDbCircle
 10
-42.300397163939
 20
301.949337925177
 30
0.0
 40
1.5
100
AcDbArc
 50
90.0
 51
192.635624999999
  0
LINE
  5
13493
330
18
100
AcDbEntity
  8
10
  6
Continuous
100
AcDbLine
 10
-40.881654163939
 20
303.554912925177
 30
0.0
 11
-40.881654163939
 21
310.843762925177
 31
0.0
  0
LINE
  5
13494
330
18
100
AcDbEntity
  8
10
  6
Continuous
100
AcDbLine
 10
-40.722712163939
 20
303.312369925177
 30
0.0
 11
-39.149654163939
 21
304.431047925177
 31
0.0
  0
LINE
  5
13495
330
18
100
AcDbEntity
  8
10
  6
Continuous
100
AcDbLine
 10
-41.881654163939
 20
303.449337925177
 30
0.0
 11
-42.300397163939
 21
303.449337925177
 31
0.0
  0
ARC
  5
13496
330
18
100
AcDbEntity
  8
10
  6
Continuous
100
AcDbCircle
 10
-40.381654163939
 20
303.554912925177
 30
0.0
 40
0.5
100
AcDbArc
 50
180.0
 51
250.837006
  0
LINE
  5
13499
330
18
100
AcDbEntity
  8
10
  6
Continuous
100
AcDbLine
 10
-40.722712163939
 20
311.086305925177
 30
0.0
 11
-39.149654163939
 21
309.967627925177
 31
0.0
  0
ARC
  5
134A3
330
18
100
AcDbEntity
  8
10
  6
Continuous
100
AcDbCircle
 10
-41.881654163939
 20
310.449337925177
 30
0.0
 40
0.5
100
AcDbArc
 50
0.0
 51
90.0
  0
LINE
  5
134A4
330
18
100
AcDbEntity
  8
10
  6
Continuous
100
AcDbLine
 10
-40.881654163939
 20
308.799337925177
 30
0.0
 11
-41.381654163939
 21
308.799337925177
 31
0.0
  0
LINE
  5
134A5
330
18
100
AcDbEntity
  8
10
  6
Continuous
100
AcDbLine
 10
-41.381654163939
 20
305.599337925177
 30
0.0
 11
-40.881654163939
 21
305.599337925177
 31
0.0
  0
LINE
  5
134A6
330
18
100
AcDbEntity
  8
10
  6
Continuous
100
AcDbLine
 10
-41.381654163939
 20
310.449337925177
 30
0.0
 11
-41.381654163939
 21
303.949337925177
 31
0.0
  0
ARC
  5
134A7
330
18
100
AcDbEntity
  8
10
  6
Continuous
100
AcDbCircle
 10
-40.381654163939
 20
310.843762925177
 30
0.0
 40
0.5
100
AcDbArc
 50
109.162994
 51
180.0
  0
ARC
  5
134B1
330
18
100
AcDbEntity
  8
10
  6
Continuous
100
AcDbCircle
 10
-38.649654163939
 20
304.786622925177
 30
0.0
 40
0.5
100
AcDbArc
 50
180.0
 51
250.837005999998
  0
LINE
  5
134B2
330
18
100
AcDbEntity
  8
10
  6
Continuous
100
AcDbLine
 10
-39.149654163939
 20
309.612052925177
 30
0.0
 11
-39.149654163939
 21
304.786622925177
 31
0.0
  0
ARC
  5
134B3
330
18
100
AcDbEntity
  8
10
  6
Continuous
100
AcDbCircle
 10
-38.649654163939
 20
309.612052925177
 30
0.0
 40
0.5
100
AcDbArc
 50
109.162994000002
 51
180.0
  0
ARC
  5
134B4
330
18
100
AcDbEntity
  8
10
  6
Continuous
100
AcDbCircle
 10
-18.881654163939
 20
307.199337925177
 30
0.0
 40
11.0
100
AcDbArc
 50
250.837005999999
 51
289.162994000001
  0
ARC
  5
134B5
330
18
100
AcDbEntity
  8
10
  6
Continuous
100
AcDbCircle
 10
-18.881654163939
 20
307.199337925177
 30
0.0
 40
9.268
100
AcDbArc
 50
250.837005999999
 51
289.162994000001
  0
ARC
  5
134B6
330
18
100
AcDbEntity
  8
10
  6
Continuous
100
AcDbCircle
 10
-18.881654163939
 20
307.199337925177
 30
0.0
 40
11.0
100
AcDbArc
 50
70.837005999999
 51
109.162994000001
  0
ARC
  5
134B7
330
18
100
AcDbEntity
  8
10
  6
Continuous
100
AcDbCircle
 10
-18.881654163939
 20
307.199337925177
 30
0.0
 40
9.268
100
AcDbArc
 50
70.837005999999
 51
109.162994000001
  0
LINE
  5
134B9
330
18
100
AcDbEntity
  8
10
  6
Continuous
100
AcDbLine
 10
4.118345836061
 20
310.949337925177
 30
0.0
 11
9.935657836061
 21
310.949337925177
 31
0.0
  0
ARC
  5
134BB
330
18
100
AcDbEntity
  8
10
  6
Continuous
100
AcDbCircle
 10
4.118345836061
 20
303.949337925177
 30
0.0
 40
0.5
100
AcDbArc
 50
180.0
 51
270.0
  0
LINE
  5
134BC
330
18
100
AcDbEntity
  8
10
  6
Continuous
100
AcDbLine
 10
2.959402836061
 20
303.312369925177
 30
0.0
 11
1.386345836061
 21
304.431047925177
 31
0.0
  0
LINE
  5
134BD
330
18
100
AcDbEntity
  8
10
  6
Continuous
100
AcDbLine
 10
3.118345836061
 20
310.843762925177
 30
0.0
 11
3.118345836061
 21
303.554912925177
 31
0.0
  0
ARC
  5
134BE
330
18
100
AcDbEntity
  8
10
  6
Continuous
100
AcDbCircle
 10
4.537087836061
 20
301.949337925177
 30
0.0
 40
1.5
100
AcDbArc
 50
347.364375000001
 51
90.0
  0
ARC
  5
134BF
330
18
100
AcDbEntity
  8
10
  6
Continuous
100
AcDbCircle
 10
2.618345836061
 20
303.554912925177
 30
0.0
 40
0.5
100
AcDbArc
 50
289.162994
 51
0.0
  0
LINE
  5
134C0
330
18
100
AcDbEntity
  8
10
  6
Continuous
100
AcDbLine
 10
4.537087836061
 20
303.449337925177
 30
0.0
 11
4.118345836061
 21
303.449337925177
 31
0.0
  0
LINE
  5
134C4
330
18
100
AcDbEntity
  8
10
  6
Continuous
100
AcDbLine
 10
3.618345836061
 20
308.799337925177
 30
0.0
 11
3.118345836061
 21
308.799337925177
 31
0.0
  0
ARC
  5
134C5
330
18
100
AcDbEntity
  8
10
  6
Continuous
100
AcDbCircle
 10
2.618345836061
 20
310.843762925177
 30
0.0
 40
0.5
100
AcDbArc
 50
0.0
 51
70.837006
  0
LINE
  5
134CF
330
18
100
AcDbEntity
  8
10
  6
Continuous
100
AcDbLine
 10
2.959402836061
 20
311.086305925177
 30
0.0
 11
1.386345836061
 21
309.967627925177
 31
0.0
  0
ARC
  5
134D0
330
18
100
AcDbEntity
  8
10
  6
Continuous
100
AcDbCircle
 10
0.886345836061
 20
309.612052925177
 30
0.0
 40
0.5
100
AcDbArc
 50
0.0
 51
70.837005999998
  0
LINE
  5
134D1
330
18
100
AcDbEntity
  8
10
  6
Continuous
100
AcDbLine
 10
1.386345836061
 20
304.786622925177
 30
0.0
 11
1.386345836061
 21
309.612052925177
 31
0.0
  0
ARC
  5
134D2
330
18
100
AcDbEntity
  8
10
  6
Continuous
100
AcDbCircle
 10
0.886345836061
 20
304.786622925177
 30
0.0
 40
0.5
100
AcDbArc
 50
289.162994000002
 51
0.0
  0
ARC
  5
134DC
330
18
100
AcDbEntity
  8
10
  6
Continuous
100
AcDbCircle
 10
4.118345836061
 20
310.449337925177
 30
0.0
 40
0.5
100
AcDbArc
 50
90.0
 51
180.0
  0
LINE
  5
134DD
330
18
100
AcDbEntity
  8
10
  6
Continuous
100
AcDbLine
 10
3.618345836061
 20
303.949337925177
 30
0.0
 11
3.618345836061
 21
310.449337925177
 31
0.0
  0
ARC
  5
134DE
330
18
100
AcDbEntity
  8
10
  6
Continuous
100
AcDbCircle
 10
9.935657836061
 20
310.449337925177
 30
0.0
 40
0.5
100
AcDbArc
 50
6.434596
 51
90.0
  0
LINE
  5
134E1
330
18
100
AcDbEntity
  8
10
  6
Continuous
100
AcDbLine
 10
150.592786836061
 20
274.199337925177
 30
0.0
 11
150.592786836061
 21
340.199337925177
 31
0.0
  0
LINE
  5
134E2
330
18
100
AcDbEntity
  8
10
  6
Continuous
100
AcDbLine
 10
140.592786836061
 20
344.699337925177
 30
0.0
 11
140.592786836061
 21
269.699337925177
 31
0.0
  0
LINE
  5
134E7
330
18
100
AcDbEntity
  8
10
  6
Continuous
100
AcDbLine
 10
90.592786836061
 20
344.699337925177
 30
0.0
 11
90.592786836061
 21
269.699337925177
 31
0.0
  0
LINE
  5
134E8
330
18
100
AcDbEntity
  8
10
  6
Continuous
100
AcDbLine
 10
80.592786836061
 20
274.199337925177
 30
0.0
 11
80.592786836061
 21
340.199337925177
 31
0.0
  0
TEXT
  5
134F1
330
18
100
AcDbEntity
  8
6
100
AcDbText
 10
110.336501911506
 20
216.522520925177
 30
0.0
 40
4.0
  1
取付扉厚
 41
0.661764705882
  7
FX_FONT
 72
     5
 11
122.336501911506
 21
216.522520925177
 31
0.0
100
AcDbText
  0
ARC
  5
134F9
330
18
100
AcDbEntity
  8
10
  6
Continuous
100
AcDbCircle
 10
90.592786836061
 20
286.699337925177
 30
0.0
 40
17.0
100
AcDbArc
 50
236.789786999999
 51
270.0
  0
ARC
  5
134FB
330
18
100
AcDbEntity
  8
10
  6
Continuous
100
AcDbCircle
 10
83.092786836061
 20
274.199337925177
 30
0.0
 40
2.5
100
AcDbArc
 50
180.0
 51
223.577374999999
  0
ARC
  5
1354F
330
18
100
AcDbEntity
  8
10
  6
Continuous
100
AcDbCircle
 10
148.092786836061
 20
274.199337925177
 30
0.0
 40
2.5
100
AcDbArc
 50
316.422625000001
 51
0.0
  0
ARC
  5
13550
330
18
100
AcDbEntity
  8
10
  6
Continuous
100
AcDbCircle
 10
140.592786836061
 20
286.699337925177
 30
0.0
 40
17.0
100
AcDbArc
 50
270.0
 51
303.210213000001
  0
LINE
  5
1358F
330
18
100
AcDbEntity
  8
7
100
AcDbLine
 10
68.509361836061
 20
307.199337925177
 30
0.0
 11
152.770046836061
 21
307.199337925177
 31
0.0
  0
ARC
  5
13594
330
18
100
AcDbEntity
  8
10
  6
Continuous
100
AcDbCircle
 10
90.592786836061
 20
327.699337925177
 30
0.0
 40
17.0
100
AcDbArc
 50
90.0
 51
123.210213
  0
ARC
  5
13596
330
18
100
AcDbEntity
  8
10
  6
Continuous
100
AcDbCircle
 10
83.092786836061
 20
340.199337925177
 30
0.0
 40
2.5
100
AcDbArc
 50
136.422625
 51
180.0
  0
LINE
  5
13597
330
18
100
AcDbEntity
  8
10
  6
Continuous
100
AcDbLine
 10
140.592786836061
 20
311.713551925177
 30
0.0
 11
139.535680836061
 21
310.656444925177
 31
0.0
  0
LINE
  5
13598
330
18
100
AcDbEntity
  8
10
  6
Continuous
100
AcDbLine
 10
95.592786836061
 20
310.699337925177
 30
0.0
 11
95.592786836061
 21
319.299337925177
 31
0.0
  0
LINE
  5
13599
330
18
100
AcDbEntity
  8
10
  6
Continuous
100
AcDbLine
 10
129.092786836061
 20
309.699337925177
 30
0.0
 11
139.535680836061
 21
309.699337925177
 31
0.0
  0
LINE
  5
1359A
330
18
100
AcDbEntity
  8
10
  6
Continuous
100
AcDbLine
 10
139.535680836061
 20
304.699337925177
 30
0.0
 11
129.092786836061
 21
304.699337925177
 31
0.0
  0
LINE
  5
1359B
330
18
100
AcDbEntity
  8
5
  6
Continuous
100
AcDbLine
 10
139.535680836061
 20
305.149337925177
 30
0.0
 11
129.092786836061
 21
305.149337925177
 31
0.0
  0
LINE
  5
1359C
330
18
100
AcDbEntity
  8
5
  6
Continuous
100
AcDbLine
 10
129.092786836061
 20
309.249337925177
 30
0.0
 11
139.535680836061
 21
309.249337925177
 31
0.0
  0
LINE
  5
135A0
330
18
100
AcDbEntity
  8
10
  6
Continuous
100
AcDbLine
 10
95.592786836061
 20
295.099337925177
 30
0.0
 11
95.592786836061
 21
303.699337925177
 31
0.0
  0
LINE
  5
135A1
330
18
100
AcDbEntity
  8
10
  6
Continuous
100
AcDbLine
 10
90.592786836061
 20
293.499337925177
 30
0.0
 11
93.992786836061
 21
293.499337925177
 31
0.0
  0
ARC
  5
135A2
330
18
100
AcDbEntity
  8
10
  6
Continuous
100
AcDbCircle
 10
93.992786836061
 20
295.099337925177
 30
0.0
 40
1.6
100
AcDbArc
 50
270.0
 51
0.0
  0
LINE
  5
135A3
330
18
100
AcDbEntity
  8
10
  6
Continuous
100
AcDbLine
 10
139.535680836061
 20
310.656444925177
 30
0.0
 11
139.535680836061
 21
303.742230925177
 31
0.0
  0
LINE
  5
135A4
330
18
100
AcDbEntity
  8
10
  6
Continuous
100
AcDbLine
 10
139.535680836061
 20
303.742230925177
 30
0.0
 11
140.592786836061
 21
302.685123925177
 31
0.0
  0
LINE
  5
135A5
330
18
100
AcDbEntity
  8
10
  6
Continuous
100
AcDbLine
 10
129.092786836061
 20
303.699337925177
 30
0.0
 11
129.092786836061
 21
310.699337925177
 31
0.0
  0
LINE
  5
135A6
330
18
100
AcDbEntity
  8
10
  6
Continuous
100
AcDbLine
 10
90.592786836061
 20
303.699337925177
 30
0.0
 11
129.092786836061
 21
303.699337925177
 31
0.0
  0
ARC
  5
135A8
330
18
100
AcDbEntity
  8
10
  6
Continuous
100
AcDbCircle
 10
93.992786836061
 20
319.299337925177
 30
0.0
 40
1.6
100
AcDbArc
 50
0.0
 51
90.0
  0
LINE
  5
135A9
330
18
100
AcDbEntity
  8
10
  6
Continuous
100
AcDbLine
 10
93.992786836061
 20
320.899337925177
 30
0.0
 11
90.592786836061
 21
320.899337925177
 31
0.0
  0
LINE
  5
135AA
330
18
100
AcDbEntity
  8
7
100
AcDbLine
 10
115.592786836061
 20
380.536798925177
 30
0.0
 11
115.592786836061
 21
239.363623190538
 31
0.0
  0
ARC
  5
135FD
330
18
100
AcDbEntity
  8
10
  6
Continuous
100
AcDbCircle
 10
140.592786836061
 20
327.699337925177
 30
0.0
 40
17.0
100
AcDbArc
 50
56.789787
 51
90.0
  0
ARC
  5
135FF
330
18
100
AcDbEntity
  8
10
  6
Continuous
100
AcDbCircle
 10
148.092786836061
 20
340.199337925177
 30
0.0
 40
2.5
100
AcDbArc
 50
0.0
 51
43.577375
  0
LINE
  5
13601
330
18
100
AcDbEntity
  8
10
  6
Continuous
100
AcDbLine
 10
135.592786836061
 20
301.693890925177
 30
0.0
 11
95.592786836061
 21
301.693890925177
 31
0.0
  0
LINE
  5
13602
330
18
100
AcDbEntity
  8
10
  6
Continuous
100
AcDbLine
 10
95.592786836061
 20
300.704146925177
 30
0.0
 11
135.592786836061
 21
300.704146925177
 31
0.0
  0
LINE
  5
13603
330
18
100
AcDbEntity
  8
10
  6
Continuous
100
AcDbLine
 10
135.592786836061
 20
296.699337925177
 30
0.0
 11
95.592786836061
 21
296.699337925177
 31
0.0
  0
LINE
  5
136A5
330
18
100
AcDbEntity
  8
7
100
AcDbLine
 10
255.143970836061
 20
258.823218925177
 30
0.0
 11
255.143970836061
 21
354.922965925177
 31
0.0
  0
CIRCLE
  5
136A6
330
18
100
AcDbEntity
  8
10
  6
Continuous
100
AcDbCircle
 10
255.143970836061
 20
307.199337925177
 30
0.0
 40
37.5
  0
CIRCLE
  5
136A7
330
18
100
AcDbEntity
  8
10
  6
Continuous
100
AcDbCircle
 10
255.143970836061
 20
307.199337925177
 30
0.0
 40
30.5
  0
CIRCLE
  5
136A8
330
18
100
AcDbEntity
  8
10
  6
Continuous
100
AcDbCircle
 10
255.143970836061
 20
307.199337925177
 30
0.0
 40
30.4
  0
ARC
  5
136A9
330
18
100
AcDbEntity
  8
10
  6
Continuous
100
AcDbCircle
 10
255.143970836061
 20
307.199337925177
 30
0.0
 40
29.5
100
AcDbArc
 50
173.565404
 51
6.434596
  0
LINE
  5
136BA
330
18
100
AcDbEntity
  8
7
100
AcDbLine
 10
212.914742836061
 20
307.199337925177
 30
0.0
 11
297.590044836062
 21
307.199337925177
 31
0.0
  0
ARC
  5
136BF
330
18
100
AcDbEntity
  8
10
  6
Continuous
100
AcDbCircle
 10
255.143970836061
 20
307.199337925177
 30
0.0
 40
13.0
100
AcDbArc
 50
38.632779000002
 51
141.367220999998
  0
ARC
  5
136C0
330
18
100
AcDbEntity
  8
10
  6
Continuous
100
AcDbCircle
 10
255.143970836061
 20
307.199337925177
 30
0.0
 40
13.0
100
AcDbArc
 50
218.632779000002
 51
321.367220999998
  0
LINE
  5
136C1
330
18
100
AcDbEntity
  8
10
  6
Continuous
100
AcDbLine
 10
252.101688836061
 20
315.953784925177
 30
0.0
 11
235.211842836061
 21
310.084346925177
 31
0.0
  0
ARC
  5
136C2
330
18
100
AcDbEntity
  8
10
  6
Continuous
100
AcDbCircle
 10
255.143970836061
 20
307.199337925177
 30
0.0
 40
25.5
100
AcDbArc
 50
192.635625
 51
347.364375
  0
LINE
  5
136C3
330
18
100
AcDbEntity
  8
10
  6
Continuous
100
AcDbLine
 10
252.101688836061
 20
298.444890925177
 30
0.0
 11
235.211842836061
 21
304.314328925177
 31
0.0
  0
LINE
  5
136C4
330
18
100
AcDbEntity
  8
10
  6
Continuous
100
AcDbLine
 10
233.479842836061
 20
303.082617925177
 30
0.0
 11
251.533147836061
 21
296.808863925177
 31
0.0
  0
LINE
  5
136C5
330
18
100
AcDbEntity
  8
10
  6
Continuous
100
AcDbLine
 10
251.533147836061
 20
317.589811925177
 30
0.0
 11
233.479842836061
 21
311.316057925177
 31
0.0
  0
LINE
  5
136C6
330
18
100
AcDbEntity
  8
10
  6
Continuous
100
AcDbLine
 10
232.143970836061
 20
310.949337925177
 30
0.0
 11
226.326658836061
 21
310.949337925177
 31
0.0
  0
ARC
  5
136C7
330
18
100
AcDbEntity
  8
10
  6
Continuous
100
AcDbCircle
 10
226.326658836061
 20
310.449337925177
 30
0.0
 40
0.5
100
AcDbArc
 50
90.0
 51
173.565403999999
  0
ARC
  5
136C8
330
18
100
AcDbEntity
  8
10
  6
Continuous
100
AcDbCircle
 10
232.143970836061
 20
303.949337925177
 30
0.0
 40
0.5
100
AcDbArc
 50
270.0
 51
0.0
  0
ARC
  5
136C9
330
18
100
AcDbEntity
  8
10
  6
Continuous
100
AcDbCircle
 10
231.725228836061
 20
301.949337925177
 30
0.0
 40
1.5
100
AcDbArc
 50
90.0
 51
192.635624999999
  0
LINE
  5
136CA
330
18
100
AcDbEntity
  8
10
  6
Continuous
100
AcDbLine
 10
234.875970836061
 20
304.431047925177
 30
0.0
 11
233.302913836061
 21
303.312369925177
 31
0.0
  0
LINE
  5
136CB
330
18
100
AcDbEntity
  8
10
  6
Continuous
100
AcDbLine
 10
233.143970836061
 20
310.843762925177
 30
0.0
 11
233.143970836061
 21
303.554912925177
 31
0.0
  0
LINE
  5
136CC
330
18
100
AcDbEntity
  8
10
  6
Continuous
100
AcDbLine
 10
232.143970836061
 20
303.449337925177
 30
0.0
 11
231.725228836061
 21
303.449337925177
 31
0.0
  0
ARC
  5
136CD
330
18
100
AcDbEntity
  8
10
  6
Continuous
100
AcDbCircle
 10
233.643970836061
 20
303.554912925177
 30
0.0
 40
0.5
100
AcDbArc
 50
180.0
 51
250.837005999994
  0
ARC
  5
136CE
330
18
100
AcDbEntity
  8
10
  6
Continuous
100
AcDbCircle
 10
232.143970836061
 20
310.449337925177
 30
0.0
 40
0.5
100
AcDbArc
 50
0.0
 51
90.0
  0
LINE
  5
136CF
330
18
100
AcDbEntity
  8
10
  6
Continuous
100
AcDbLine
 10
234.875970836061
 20
309.967627925177
 30
0.0
 11
233.302913836061
 21
311.086305925177
 31
0.0
  0
ARC
  5
136D0
330
18
100
AcDbEntity
  8
10
  6
Continuous
100
AcDbCircle
 10
235.375970836061
 20
309.612052925177
 30
0.0
 40
0.5
100
AcDbArc
 50
109.162994000008
 51
180.0
  0
LINE
  5
136D1
330
18
100
AcDbEntity
  8
10
  6
Continuous
100
AcDbLine
 10
233.143970836061
 20
305.599337925177
 30
0.0
 11
232.643970836061
 21
305.599337925177
 31
0.0
  0
ARC
  5
136D2
330
18
100
AcDbEntity
  8
10
  6
Continuous
100
AcDbCircle
 10
235.375970836061
 20
304.786622925177
 30
0.0
 40
0.5
100
AcDbArc
 50
180.0
 51
250.837005999992
  0
LINE
  5
136D3
330
18
100
AcDbEntity
  8
10
  6
Continuous
100
AcDbLine
 10
234.875970836061
 20
309.612052925177
 30
0.0
 11
234.875970836061
 21
304.786622925177
 31
0.0
  0
LINE
  5
136D4
330
18
100
AcDbEntity
  8
10
  6
Continuous
100
AcDbLine
 10
232.643970836061
 20
308.799337925177
 30
0.0
 11
233.143970836061
 21
308.799337925177
 31
0.0
  0
LINE
  5
136D5
330
18
100
AcDbEntity
  8
10
  6
Continuous
100
AcDbLine
 10
232.643970836061
 20
303.949337925177
 30
0.0
 11
232.643970836061
 21
310.449337925177
 31
0.0
  0
ARC
  5
136D6
330
18
100
AcDbEntity
  8
10
  6
Continuous
100
AcDbCircle
 10
233.643970836061
 20
310.843762925177
 30
0.0
 40
0.5
100
AcDbArc
 50
109.162994000006
 51
180.0
  0
LINE
  5
136D7
330
18
100
AcDbEntity
  8
10
  6
Continuous
100
AcDbLine
 10
275.076099836061
 20
310.084346925177
 30
0.0
 11
258.186253836061
 21
315.953784925177
 31
0.0
  0
LINE
  5
136D8
330
18
100
AcDbEntity
  8
10
  6
Continuous
100
AcDbLine
 10
276.808099836061
 20
311.316057925177
 30
0.0
 11
258.754793836061
 21
317.589811925177
 31
0.0
  0
LINE
  5
136D9
330
18
100
AcDbEntity
  8
10
  6
Continuous
100
AcDbLine
 10
275.076099836061
 20
304.314328925177
 30
0.0
 11
258.186253836061
 21
298.444890925177
 31
0.0
  0
LINE
  5
136DA
330
18
100
AcDbEntity
  8
10
  6
Continuous
100
AcDbLine
 10
258.754793836061
 20
296.808863925177
 30
0.0
 11
276.808099836061
 21
303.082617925177
 31
0.0
  0
ARC
  5
136DB
330
18
100
AcDbEntity
  8
10
  6
Continuous
100
AcDbCircle
 10
255.143970836061
 20
307.199337925177
 30
0.0
 40
9.268
100
AcDbArc
 50
250.837005999999
 51
289.162994000001
  0
ARC
  5
136DC
330
18
100
AcDbEntity
  8
10
  6
Continuous
100
AcDbCircle
 10
255.143970836061
 20
307.199337925177
 30
0.0
 40
11.0
100
AcDbArc
 50
250.837005999999
 51
289.162994000001
  0
LINE
  5
136DD
330
18
100
AcDbEntity
  8
10
  6
Continuous
100
AcDbLine
 10
283.961283836061
 20
310.949337925177
 30
0.0
 11
278.143970836061
 21
310.949337925177
 31
0.0
  0
ARC
  5
136DE
330
18
100
AcDbEntity
  8
10
  6
Continuous
100
AcDbCircle
 10
278.562713836062
 20
301.949337925177
 30
0.0
 40
1.5
100
AcDbArc
 50
347.364375000001
 51
90.0
  0
LINE
  5
136DF
330
18
100
AcDbEntity
  8
10
  6
Continuous
100
AcDbLine
 10
276.985028836062
 20
303.312369925177
 30
0.0
 11
275.411970836061
 21
304.431047925177
 31
0.0
  0
LINE
  5
136E0
330
18
100
AcDbEntity
  8
10
  6
Continuous
100
AcDbLine
 10
277.143970836061
 20
303.554912925177
 30
0.0
 11
277.143970836061
 21
310.843762925177
 31
0.0
  0
ARC
  5
136E1
330
18
100
AcDbEntity
  8
10
  6
Continuous
100
AcDbCircle
 10
278.143970836061
 20
303.949337925177
 30
0.0
 40
0.5
100
AcDbArc
 50
180.0
 51
270.0
  0
ARC
  5
136E2
330
18
100
AcDbEntity
  8
10
  6
Continuous
100
AcDbCircle
 10
276.643970836061
 20
303.554912925177
 30
0.0
 40
0.5
100
AcDbArc
 50
289.162993999992
 51
0.0
  0
LINE
  5
136E3
330
18
100
AcDbEntity
  8
10
  6
Continuous
100
AcDbLine
 10
278.143970836061
 20
303.449337925177
 30
0.0
 11
278.562713836062
 21
303.449337925177
 31
0.0
  0
LINE
  5
136E4
330
18
100
AcDbEntity
  8
10
  6
Continuous
100
AcDbLine
 10
276.985028836062
 20
311.086305925177
 30
0.0
 11
275.411970836061
 21
309.967627925177
 31
0.0
  0
ARC
  5
136E5
330
18
100
AcDbEntity
  8
10
  6
Continuous
100
AcDbCircle
 10
274.911970836061
 20
304.786622925177
 30
0.0
 40
0.5
100
AcDbArc
 50
289.162993999996
 51
0.0
  0
ARC
  5
136E6
330
18
100
AcDbEntity
  8
10
  6
Continuous
100
AcDbCircle
 10
274.911970836061
 20
309.612052925177
 30
0.0
 40
0.5
100
AcDbArc
 50
0.0
 51
70.837006000004
  0
LINE
  5
136E7
330
18
100
AcDbEntity
  8
10
  6
Continuous
100
AcDbLine
 10
275.411970836061
 20
304.786622925177
 30
0.0
 11
275.411970836061
 21
309.612052925177
 31
0.0
  0
LINE
  5
136E8
330
18
100
AcDbEntity
  8
10
  6
Continuous
100
AcDbLine
 10
277.143970836061
 20
308.799337925177
 30
0.0
 11
277.643970836061
 21
308.799337925177
 31
0.0
  0
LINE
  5
136E9
330
18
100
AcDbEntity
  8
10
  6
Continuous
100
AcDbLine
 10
277.643970836061
 20
305.599337925177
 30
0.0
 11
277.143970836061
 21
305.599337925177
 31
0.0
  0
ARC
  5
136EA
330
18
100
AcDbEntity
  8
10
  6
Continuous
100
AcDbCircle
 10
276.643970836061
 20
310.843762925177
 30
0.0
 40
0.5
100
AcDbArc
 50
0.0
 51
70.837006000008
  0
LINE
  5
136EB
330
18
100
AcDbEntity
  8
10
  6
Continuous
100
AcDbLine
 10
277.643970836061
 20
310.449337925177
 30
0.0
 11
277.643970836061
 21
303.949337925177
 31
0.0
  0
ARC
  5
136EC
330
18
100
AcDbEntity
  8
10
  6
Continuous
100
AcDbCircle
 10
278.143970836061
 20
310.449337925177
 30
0.0
 40
0.5
100
AcDbArc
 50
90.0
 51
180.0
  0
ARC
  5
136ED
330
18
100
AcDbEntity
  8
10
  6
Continuous
100
AcDbCircle
 10
283.961283836061
 20
310.449337925177
 30
0.0
 40
0.5
100
AcDbArc
 50
6.434596000001
 51
90.0
  0
ARC
  5
136EE
330
18
100
AcDbEntity
  8
10
  6
Continuous
100
AcDbCircle
 10
255.143970836061
 20
307.199337925177
 30
0.0
 40
9.268
100
AcDbArc
 50
70.837006
 51
109.162994
  0
ARC
  5
136EF
330
18
100
AcDbEntity
  8
10
  6
Continuous
100
AcDbCircle
 10
255.143970836061
 20
307.199337925177
 30
0.0
 40
11.0
100
AcDbArc
 50
70.837005999999
 51
109.162994000001
  0
LINE
  5
1412D
330
18
100
AcDbEntity
  8
7
100
AcDbLine
 10
280.143970836061
 20
295.178310384728
 30
0.0
 11
280.143970836061
 21
319.220365465627
 31
0.0
  0
CIRCLE
  5
1412F
330
18
100
AcDbEntity
  8
4P
100
AcDbCircle
 10
280.143970836061
 20
307.199337925177
 30
0.0
 40
6.0
  0
CIRCLE
  5
14130
330
18
100
AcDbEntity
  8
4P
100
AcDbCircle
 10
255.143970836061
 20
307.199337925177
 30
0.0
 40
15.0
  0
HATCH
  5
14131
102
{ACAD_XDICTIONARY
360
14135
102
}
330
18
100
AcDbEntity
  8
8
100
AcDbHatch
 10
0.0
 20
0.0
 30
0.0
210
0.0
220
0.0
230
1.0
  2
_USER
 70
     0
 71
     0
 91
       32
 92
        7
 72
     1
 73
     1
 93
       10
 10
276.808099149882
 20
311.3160572154268
 42
-0.3193186334445967
 10
277.1439708360614
 20
310.8437629251771
 42
0.0
 10
277.1439708360614
 20
308.7993379251772
 42
0.0
 10
277.6439708360614
 20
308.7993379251772
 42
0.0
 10
277.6439708360614
 20
310.4493379251771
 42
-0.414213562373095
 10
278.1439708360614
 20
310.9493379251771
 42
0.0
 10
280.1439708360614
 20
310.9493379251771
 42
0.0
 10
280.1439708360614
 20
313.1993379251771
 42
0.1902542669838174
 10
276.0452374932764
 20
311.5811623151707
 42
0.0
 10
276.8080998360614
 20
311.3160579251771
 42
0.0
 97
        0
 92
        7
 72
     1
 73
     1
 93
       11
 10
277.1439708360614
 20
310.8437629251771
 42
0.3193186334445967
 10
276.808099149882
 20
311.3160572154268
 42
0.0
 10
276.8080998360614
 20
311.3160579251771
 42
0.0
 10
276.0452374932764
 20
311.5811623151707
 42
0.07676086453429
 10
274.9143263368115
 20
310.1405652899799
 42
0.0
 10
275.0760998360614
 20
310.0843469251771
 42
0.0
 10
275.0760991498819
 20
310.0843472154268
 42
-0.3193186334445967
 10
275.4119708360614
 20
309.6120529251772
 42
0.0
 10
275.4119708360614
 20
307.1993379251771
 42
0.0
 10
277.1439708360614
 20
307.1993379251771
 42
0.0
 10
277.1439708360614
 20
308.7993379251772
 42
0.0
 97
        0
 92
        7
 72
     1
 73
     1
 93
        6
 10
275.0760998360614
 20
310.0843469251771
 42
0.0
 10
274.9143263368115
 20
310.1405652899799
 42
0.1287861147274971
 10
274.1439708360614
 20
307.1993379251771
 42
0.0
 10
275.4119708360614
 20
307.1993379251771
 42
0.0
 10
275.4119708360614
 20
309.6120529251772
 42
0.3193186334445967
 10
275.0760991498819
 20
310.0843472154268
 42
0.0
 97
        0
 92
        7
 72
     1
 73
     1
 93
        6
 10
278.1439708360614
 20
310.9493379251771
 42
0.414213562373095
 10
277.6439708360614
 20
310.4493379251771
 42
0.0
 10
277.6439708360614
 20
308.7993379251772
 42
0.0
 10
277.6439708360614
 20
307.1993379251771
 42
0.0
 10
280.1439708360614
 20
307.1993379251771
 42
0.0
 10
280.1439708360614
 20
310.9493379251771
 42
0.0
 97
        0
 92
        7
 72
     0
 73
     1
 93
        4
 10
277.6439708360614
 20
308.7993379251772
 10
277.1439708360614
 20
308.7993379251772
 10
277.1439708360614
 20
307.1993379251771
 10
277.6439708360614
 20
307.1993379251771
 97
        0
 92
        7
 72
     1
 73
     1
 93
        8
 10
285.5439708360614
 20
307.1993379251771
 42
0.0237304383397469
 10
285.4071708360614
 20
310.0800888272859
 42
0.2740682212535028
 10
280.1439708360614
 20
313.1993379251771
 42
0.0
 10
280.1439708360614
 20
310.9493379251771
 42
0.0
 10
283.9612838360615
 20
310.9493379251771
 42
-0.3816899119301446
 10
284.458134051807
 20
310.5053724066468
 42
0.0
 10
284.4581335650507
 20
310.5053723318849
 42
-0.0280836011396333
 10
284.6439708360614
 20
307.1993379251771
 42
0.0
 97
        0
 92
        7
 72
     1
 73
     1
 93
        6
 10
284.458134051807
 20
310.5053724066468
 42
0.3816899119301446
 10
283.9612838360615
 20
310.9493379251771
 42
0.0
 10
280.1439708360614
 20
310.9493379251771
 42
0.0
 10
280.1439708360614
 20
307.1993379251771
 42
0.0
 10
284.6439708360614
 20
307.1993379251771
 42
0.0280836011396333
 10
284.4581335650507
 20
310.5053723318849
 42
0.0
 97
        0
 92
        7
 72
     1
 73
     1
 93
        3
 10
286.1439708360614
 20
307.1993379251771
 42
0.1146809888924601
 10
285.5289708360614
 20
309.8454246584495
 42
-0.0217199509342918
 10
285.6439708360614
 20
307.1993379251771
 42
0.0
 97
        0
 92
        7
 72
     1
 73
     1
 93
        6
 10
274.9143263368115
 20
304.2581105603744
 42
0.0
 10
275.0760998360614
 20
304.3143289251772
 42
0.0
 10
275.0760991498819
 20
304.3143286349275
 42
0.3193186334445968
 10
275.4119708360614
 20
304.7866229251771
 42
0.0
 10
275.4119708360614
 20
307.1993379251771
 42
0.0
 10
274.1439708360614
 20
307.1993379251771
 42
0.1287861147274987
 97
        0
 92
        7
 72
     1
 73
     1
 93
       11
 10
276.808099149882
 20
303.0826186349275
 42
0.3193186334445968
 10
277.1439708360614
 20
303.5549129251772
 42
0.0
 10
277.1439708360614
 20
305.5993379251771
 42
0.0
 10
277.1439708360614
 20
307.1993379251771
 42
0.0
 10
275.4119708360614
 20
307.1993379251771
 42
0.0
 10
275.4119708360614
 20
304.7866229251771
 42
-0.3193186334445968
 10
275.0760991498819
 20
304.3143286349275
 42
0.0
 10
275.0760998360614
 20
304.3143289251772
 42
0.0
 10
274.9143263368115
 20
304.2581105603744
 42
0.0767608645342896
 10
276.0452374932764
 20
302.8175135351836
 42
0.0
 10
276.8080998360614
 20
303.0826179251771
 42
0.0
 97
        0
 92
        7
 72
     1
 73
     1
 93
        8
 10
278.1439708360614
 20
303.4493379251771
 42
0.0
 10
278.5627138360615
 20
303.4493379251771
 42
-0.414213562373095
 10
280.0627138360615
 20
301.9493379251771
 42
0.0
 10
280.1439708360614
 20
301.9493379251771
 42
0.0
 10
280.1439708360614
 20
307.1993379251771
 42
0.0
 10
277.6439708360614
 20
307.1993379251771
 42
0.0
 10
277.6439708360614
 20
305.5993379251771
 42
0.0
 10
277.6439708360614
 20
303.9493379251771
 42
0.414213562373095
 97
        0
 92
        7
 72
     1
 73
     1
 93
       13
 10
277.1439708360614
 20
303.5549129251772
 42
-0.3193186334445968
 10
276.808099149882
 20
303.0826186349275
 42
0.0
 10
276.8080998360614
 20
303.0826179251771
 42
0.0
 10
276.0452374932764
 20
302.8175135351836
 42
0.1809852371013686
 10
279.9289708360615
 20
301.2031912458505
 42
0.004208134512461
 10
280.0263847449863
 20
301.6212129655744
 42
0.0
 10
280.0263852424688
 20
301.6212129275535
 42
0.0551892454187815
 10
280.0627138360615
 20
301.9493379251771
 42
0.414213562373095
 10
278.5627138360615
 20
303.4493379251771
 42
0.0
 10
278.1439708360614
 20
303.4493379251771
 42
-0.414213562373095
 10
277.6439708360614
 20
303.9493379251771
 42
0.0
 10
277.6439708360614
 20
305.5993379251771
 42
0.0
 10
277.1439708360614
 20
305.5993379251771
 42
0.0
 97
        0
 92
        7
 72
     0
 73
     1
 93
        4
 10
277.1439708360614
 20
305.5993379251771
 10
277.6439708360614
 20
305.5993379251771
 10
277.6439708360614
 20
307.1993379251771
 10
277.1439708360614
 20
307.1993379251771
 97
        0
 92
        7
 72
     1
 73
     1
 93
        5
 10
280.1439708360614
 20
301.1993379251771
 42
0.1954073690835731
 10
284.3289708360614
 20
302.8998292323147
 42
0.0365830669761837
 10
284.6439708360614
 20
307.1993379251771
 42
0.0
 10
280.1439708360614
 20
307.1993379251771
 42
0.0
 10
280.1439708360614
 20
301.9493379251771
 42
0.0
 97
        0
 92
        7
 72
     1
 73
     1
 93
        4
 10
284.3289708360614
 20
302.8998292323147
 42
0.0746623155869653
 10
285.4071708360614
 20
304.3185870230685
 42
0.023730438339747
 10
285.5439708360614
 20
307.1993379251771
 42
0.0
 10
284.6439708360614
 20
307.1993379251771
 42
-0.0365830669761837
 97
        0
 92
        7
 72
     1
 73
     1
 93
        3
 10
285.5289708360614
 20
304.5532511919048
 42
0.11468098889246
 10
286.1439708360614
 20
307.1993379251771
 42
0.0
 10
285.6439708360614
 20
307.1993379251771
 42
-0.0217199509342918
 97
        0
 92
        7
 72
     1
 73
     1
 93
        5
 10
255.1439708360614
 20
322.1993379251771
 42
0.2773077316548406
 10
241.9001967265443
 20
314.2422384168839
 42
0.0
 10
244.9888463369408
 20
315.3155835937267
 42
0.0
 10
244.9888463487018
 20
315.3155837720098
 42
-0.2279618544222784
 10
255.1439708360614
 20
320.1993379251771
 42
0.0
 97
        0
 92
        7
 72
     1
 73
     1
 93
        6
 10
244.9888463369408
 20
315.3155835937267
 42
0.0
 10
251.5331478360615
 20
317.5898119251771
 42
0.0
 10
251.5331479320074
 20
317.5898123106688
 42
-0.0838097406608967
 10
255.1439708360614
 20
318.1993379251771
 42
0.0
 10
255.1439708360614
 20
320.1993379251771
 42
0.2279618544222784
 10
244.9888463487018
 20
315.3155837720098
 42
0.0
 97
        0
 92
        7
 72
     1
 73
     1
 93
        9
 10
251.5331478360615
 20
317.5898119251771
 42
0.0
 10
244.9888463369408
 20
315.3155835937267
 42
0.0
 10
241.9001967265443
 20
314.2422384168839
 42
0.0393165860459713
 10
240.9609807313931
 20
312.0822460433869
 42
0.0
 10
252.1016888360614
 20
315.9537849251772
 42
0.0
 10
252.1016884110821
 20
315.9537848892442
 42
-0.0838097406608959
 10
255.1439708360614
 20
316.4673379251772
 42
0.0
 10
255.1439708360614
 20
318.1993379251771
 42
0.0838097406608967
 10
251.5331479320074
 20
317.5898123106688
 42
0.0
 97
        0
 92
        7
 72
     1
 73
     1
 93
        6
 10
252.1016888360614
 20
315.9537849251772
 42
0.0
 10
240.9609807313931
 20
312.0822460433869
 42
0.0830826910998097
 10
240.1439708360614
 20
307.1993379251771
 42
0.0
 10
255.1439708360614
 20
307.1993379251771
 42
0.0
 10
255.1439708360614
 20
316.4673379251772
 42
0.0838097406608959
 10
252.1016884110821
 20
315.9537848892442
 42
0.0
 97
        0
 92
        7
 72
     1
 73
     1
 93
        6
 10
270.1439708360614
 20
307.1993379251771
 42
0.0830826981058227
 10
269.326960804829
 20
312.082246438127
 42
0.0
 10
258.1862538360614
 20
315.9537849251772
 42
0.0
 10
258.1862532610408
 20
315.9537848892442
 42
0.0838097406608959
 10
255.1439708360614
 20
316.4673379251772
 42
0.0
 10
255.1439708360614
 20
307.1993379251771
 42
0.0
 97
        0
 92
        7
 72
     1
 73
     1
 93
        9
 10
258.7547937401155
 20
317.5898123106688
 42
0.0838097406608967
 10
255.1439708360614
 20
318.1993379251771
 42
0.0
 10
255.1439708360614
 20
316.4673379251772
 42
-0.0838097406608959
 10
258.1862532610408
 20
315.9537848892442
 42
0.0
 10
258.1862538360614
 20
315.9537849251772
 42
0.0
 10
269.326960804829
 20
312.082246438127
 42
0.0393165833776454
 10
268.387744824616
 20
314.2422386443471
 42
0.0
 10
265.299095376783
 20
315.3155837052428
 42
0.0
 10
258.7547938360614
 20
317.5898119251771
 42
0.0
 97
        0
 92
        7
 72
     1
 73
     1
 93
        6
 10
255.1439708360614
 20
318.1993379251771
 42
-0.0838097406608967
 10
258.7547937401155
 20
317.5898123106688
 42
0.0
 10
258.7547938360614
 20
317.5898119251771
 42
0.0
 10
265.299095376783
 20
315.3155837052428
 42
0.0
 10
265.2990953234211
 20
315.3155837720098
 42
0.2279618544222786
 10
255.1439708360614
 20
320.1993379251771
 42
0.0
 97
        0
 92
        7
 72
     1
 73
     1
 93
        5
 10
255.1439708360614
 20
320.1993379251771
 42
-0.2279618544222786
 10
265.2990953234211
 20
315.3155837720098
 42
0.0
 10
265.299095376783
 20
315.3155837052428
 42
0.0
 10
268.387744824616
 20
314.2422386443471
 42
0.2773077270308748
 10
255.1439708360614
 20
322.1993379251771
 42
0.0
 97
        0
 92
        7
 72
     1
 73
     1
 93
        6
 10
269.326960804829
 20
302.3164294122273
 42
0.0830826981058238
 10
270.1439708360614
 20
307.1993379251771
 42
0.0
 10
255.1439708360614
 20
307.1993379251771
 42
0.0
 10
255.1439708360614
 20
297.9313379251772
 42
0.0838097406608958
 10
258.1862532610408
 20
298.4448909611102
 42
0.0
 10
258.1862538360614
 20
298.4448909251771
 42
0.0
 97
        0
 92
        7
 72
     1
 73
     1
 93
        6
 10
252.1016884110821
 20
298.4448909611102
 42
0.083809740660896
 10
255.1439708360614
 20
297.9313379251772
 42
0.0
 10
255.1439708360614
 20
307.1993379251771
 42
0.0
 10
240.1439708360614
 20
307.1993379251771
 42
0.083082691099811
 10
240.9609807313931
 20
302.3164298069673
 42
0.0
 10
252.1016888360614
 20
298.4448909251771
 42
0.0
 97
        0
 92
        7
 72
     1
 73
     1
 93
        9
 10
258.7547938360614
 20
296.8088639251771
 42
0.0
 10
265.2990953084688
 20
299.0830921213713
 42
0.0
 10
268.387744824616
 20
300.1564372060071
 42
0.0393165833776463
 10
269.326960804829
 20
302.3164294122273
 42
0.0
 10
258.1862538360614
 20
298.4448909251771
 42
0.0
 10
258.1862532610408
 20
298.4448909611102
 42
-0.0838097406608958
 10
255.1439708360614
 20
297.9313379251772
 42
0.0
 10
255.1439708360614
 20
296.1993379251771
 42
0.0838097406608967
 10
258.7547937401155
 20
296.8088635396855
 42
0.0
 97
        0
 92
        7
 72
     1
 73
     1
 93
        9
 10
255.1439708360614
 20
297.9313379251772
 42
-0.083809740660896
 10
252.1016884110821
 20
298.4448909611102
 42
0.0
 10
252.1016888360614
 20
298.4448909251771
 42
0.0
 10
240.9609807313931
 20
302.3164298069673
 42
0.0393165860459722
 10
241.9001967265443
 20
300.1564374334703
 42
0.0
 10
244.9888463369408
 20
299.0830922566275
 42
0.0
 10
251.5331478360615
 20
296.8088639251771
 42
0.0
 10
251.5331479320074
 20
296.8088635396855
 42
0.0838097406608967
 10
255.1439708360614
 20
296.1993379251771
 42
0.0
 97
        0
 92
        7
 72
     1
 73
     1
 93
        6
 10
244.9888463487018
 20
299.0830920783445
 42
0.2279618544222786
 10
255.1439708360614
 20
294.1993379251771
 42
0.0
 10
255.1439708360614
 20
296.1993379251771
 42
-0.0838097406608967
 10
251.5331479320074
 20
296.8088635396855
 42
0.0
 10
251.5331478360615
 20
296.8088639251771
 42
0.0
 10
244.9888463369408
 20
299.0830922566275
 42
0.0
 97
        0
 92
        7
 72
     1
 73
     1
 93
        5
 10
255.1439708360614
 20
294.1993379251771
 42
-0.2279618544222786
 10
244.9888463487018
 20
299.0830920783445
 42
0.0
 10
244.9888463369408
 20
299.0830922566275
 42
0.0
 10
241.9001967265443
 20
300.1564374334703
 42
0.2773077316548383
 10
255.1439708360614
 20
292.1993379251771
 42
0.0
 97
        0
 92
        7
 72
     1
 73
     1
 93
        6
 10
265.2990953084688
 20
299.0830921213713
 42
0.0
 10
258.7547938360614
 20
296.8088639251771
 42
0.0
 10
258.7547937401155
 20
296.8088635396855
 42
-0.0838097406608967
 10
255.1439708360614
 20
296.1993379251771
 42
0.0
 10
255.1439708360614
 20
294.1993379251771
 42
0.2279618544222786
 10
265.2990953234211
 20
299.0830920783445
 42
0.0
 97
        0
 92
        7
 72
     1
 73
     1
 93
        5
 10
255.1439708360614
 20
292.1993379251771
 42
0.2773077270308725
 10
268.387744824616
 20
300.1564372060071
 42
0.0
 10
265.2990953084688
 20
299.0830921213713
 42
0.0
 10
265.2990953234211
 20
299.0830920783445
 42
-0.2279618544222786
 10
255.1439708360614
 20
294.1993379251771
 42
0.0
 97
        0
 75
     0
 76
     0
 52
45.0
 41
1.0
 77
     0
 78
     1
 53
45.0
 43
102.0018620858299
 44
305.7967905501497
 45
-0.7071067811865475
 46
0.7071067811865476
 79
     0
 47
0.0
 98
       32
 10
278.4749286489827
 20
311.9162338059799
 10
276.4156086130819
 20
310.9816624700537
 10
275.0134966797501
 20
308.7382833767227
 10
278.353072375504
 20
308.2539174361172
 10
277.4225799106566
 20
308.0117344658145
 10
281.7275057705282
 20
311.7482717219143
 10
282.0136510630448
 20
309.1989772976746
 10
285.8396249813115
 20
307.6231459069257
 10
274.8391733442806
 20
306.5779723547138
 10
276.0440261891916
 20
306.5344234567049
 10
278.8456719610932
 20
304.342462256927
 10
278.2940525863146
 20
302.7311530306002
 10
277.5392050208282
 20
306.2150648713068
 10
282.3441001011359
 20
304.8360164343605
 10
285.1892947710463
 20
306.0118366805989
 10
285.8425282411787
 20
306.4473256606873
 10
247.9456762275651
 20
318.9954602720853
 10
248.8344292481535
 20
317.937420961861
 10
243.9674484211218
 20
314.2554441622805
 10
244.8985230141191
 20
310.8273967971538
 10
257.5526731644017
 20
310.8697183695627
 10
260.049645936531
 20
315.5674129069586
 10
260.4305400882118
 20
317.5988483825893
 10
263.0121560051591
 20
318.4452798307686
 10
263.054477577568
 20
303.1248706187209
 10
250.9928294410111
 20
302.2361175981325
 10
261.488579398436
 20
298.3002113640982
 10
249.4269312618791
 20
298.2155682192802
 10
248.7074645309266
 20
296.8189563297842
 10
247.9033546551562
 20
295.6339523023329
 10
258.3567830401722
 20
295.4646660126971
 10
258.6107124746259
 20
293.8564462611562
1001
ACAD
1010
0.0
1020
0.0
1030
0.0
1001
AcadAnnotative
1000
AnnotativeData
1002
{
1070
     1
1070
     0
1002
}
  0
LINE
  5
14138
330
18
100
AcDbEntity
  8
7
100
AcDbLine
 10
230.143970836061
 20
295.178310384728
 30
0.0
 11
230.143970836061
 21
319.220365465627
 31
0.0
  0
CIRCLE
  5
14139
330
18
100
AcDbEntity
  8
4P
100
AcDbCircle
 10
230.143970836061
 20
307.199337925177
 30
0.0
 40
6.0
  0
HATCH
  5
1413E
102
{ACAD_XDICTIONARY
360
1413F
102
}
330
18
100
AcDbEntity
  8
8
100
AcDbHatch
 10
0.0
 20
0.0
 30
0.0
210
0.0
220
0.0
230
1.0
  2
_USER
 70
     0
 71
     0
 91
       18
 92
        7
 72
     1
 73
     1
 93
        8
 10
225.8298086203159
 20
310.5053724066468
 42
-0.3816899119301446
 10
226.3266588360614
 20
310.9493379251771
 42
0.0
 10
230.1439708360614
 20
310.9493379251771
 42
0.0
 10
230.1439708360614
 20
313.1993379251771
 42
0.2740682212535028
 10
224.8807708360615
 20
310.0800888272859
 42
0.023730438339747
 10
224.7439708360615
 20
307.1993379251771
 42
0.0
 10
225.6439708360614
 20
307.1993379251771
 42
-0.0280836011396336
 10
225.8298081070722
 20
310.5053723318849
 42
0.0
 97
        0
 92
        7
 72
     1
 73
     1
 93
        3
 10
224.7589708360615
 20
309.8454246584495
 42
0.1146809888924601
 10
224.1439708360614
 20
307.1993379251771
 42
0.0
 10
224.6439708360614
 20
307.1993379251771
 42
-0.0217199509342917
 97
        0
 92
        7
 72
     1
 73
     1
 93
        4
 10
224.8807708360615
 20
310.0800888272859
 42
0.0110176219184422
 10
224.7589708360615
 20
309.8454246584495
 42
0.0217199509342917
 10
224.6439708360614
 20
307.1993379251771
 42
0.0
 10
224.7439708360615
 20
307.1993379251771
 42
-0.023730438339747
 97
        0
 92
        7
 72
     1
 73
     1
 93
        6
 10
226.3266588360614
 20
310.9493379251771
 42
0.3816899119301446
 10
225.8298086203159
 20
310.5053724066468
 42
0.0
 10
225.8298081070722
 20
310.5053723318849
 42
0.0280836011396336
 10
225.6439708360614
 20
307.1993379251771
 42
0.0
 10
230.1439708360614
 20
307.1993379251771
 42
0.0
 10
230.1439708360614
 20
310.9493379251771
 42
0.0
 97
        0
 92
        7
 72
     1
 73
     1
 93
        6
 10
232.6439708360614
 20
310.4493379251771
 42
0.414213562373095
 10
232.1439708360614
 20
310.9493379251771
 42
0.0
 10
230.1439708360614
 20
310.9493379251771
 42
0.0
 10
230.1439708360614
 20
307.1993379251771
 42
0.0
 10
232.6439708360614
 20
307.1993379251771
 42
0.0
 10
232.6439708360614
 20
308.7993379251772
 42
0.0
 97
        0
 92
        7
 72
     1
 73
     1
 93
       10
 10
232.6439708360614
 20
308.7993379251772
 42
0.0
 10
233.1439708360614
 20
308.7993379251772
 42
0.0
 10
233.1439708360614
 20
310.8437629251771
 42
-0.3193186334445323
 10
233.4798425222407
 20
311.3160572154267
 42
0.0
 10
233.4798428360614
 20
311.3160579251771
 42
0.0
 10
234.2427044382793
 20
311.5811620724987
 42
0.190254282321234
 10
230.1439708360614
 20
313.1993379251771
 42
0.0
 10
230.1439708360614
 20
310.9493379251771
 42
0.0
 10
232.1439708360614
 20
310.9493379251771
 42
-0.414213562373095
 10
232.6439708360614
 20
310.4493379251771
 42
0.0
 97
        0
 92
        7
 72
     1
 73
     1
 93
       11
 10
234.8759708360614
 20
309.6120529251772
 42
-0.3193186334445323
 10
235.2118425222407
 20
310.0843472154268
 42
0.0
 10
235.2118428360614
 20
310.0843469251771
 42
0.0
 10
235.3736154988036
 20
310.1405649992828
 42
0.0767608636239121
 10
234.2427044382793
 20
311.5811620724987
 42
0.0
 10
233.4798428360614
 20
311.3160579251771
 42
0.0
 10
233.4798425222407
 20
311.3160572154267
 42
0.3193186334445323
 10
233.1439708360614
 20
310.8437629251771
 42
0.0
 10
233.1439708360614
 20
308.7993379251772
 42
0.0
 10
233.1439708360614
 20
307.1993379251771
 42
0.0
 10
234.8759708360614
 20
307.1993379251771
 42
0.0
 97
        0
 92
        7
 72
     1
 73
     1
 93
        6
 10
236.1439708360614
 20
307.1993379251771
 42
0.1287861006004092
 10
235.3736154988036
 20
310.1405649992828
 42
0.0
 10
235.2118428360614
 20
310.0843469251771
 42
0.0
 10
235.2118425222407
 20
310.0843472154268
 42
0.3193186334445323
 10
234.8759708360614
 20
309.6120529251772
 42
0.0
 10
234.8759708360614
 20
307.1993379251771
 42
0.0
 97
        0
 92
        7
 72
     0
 73
     1
 93
        4
 10
233.1439708360614
 20
308.7993379251772
 10
232.6439708360614
 20
308.7993379251772
 10
232.6439708360614
 20
307.1993379251771
 10
233.1439708360614
 20
307.1993379251771
 97
        0
 92
        7
 72
     1
 73
     1
 93
        3
 10
224.1439708360614
 20
307.1993379251771
 42
0.1146809888924601
 10
224.7589708360615
 20
304.5532511919048
 42
-0.0217199509342917
 10
224.6439708360614
 20
307.1993379251771
 42
0.0
 97
        0
 92
        7
 72
     1
 73
     1
 93
        4
 10
224.7589708360615
 20
304.5532511919048
 42
0.0110176219184422
 10
224.8807708360615
 20
304.3185870230685
 42
-0.023730438339747
 10
224.7439708360615
 20
307.1993379251771
 42
0.0
 10
224.6439708360614
 20
307.1993379251771
 42
0.0217199509342917
 97
        0
 92
        7
 72
     1
 73
     1
 93
        4
 10
224.8807708360615
 20
304.3185870230685
 42
0.0746623155869652
 10
225.9589708360614
 20
302.8998292323147
 42
-0.0365830669761837
 10
225.6439708360614
 20
307.1993379251771
 42
0.0
 10
224.7439708360615
 20
307.1993379251771
 42
0.023730438339747
 97
        0
 92
        7
 72
     1
 73
     1
 93
        5
 10
225.9589708360614
 20
302.8998292323147
 42
0.1954073690835733
 10
230.1439708360614
 20
301.1993379251771
 42
0.0
 10
230.1439708360614
 20
301.9493379251771
 42
0.0
 10
230.1439708360614
 20
307.1993379251771
 42
0.0
 10
225.6439708360614
 20
307.1993379251771
 42
0.0365830669761837
 97
        0
 92
        7
 72
     1
 73
     1
 93
        8
 10
232.1439708360614
 20
303.4493379251771
 42
0.414213562373095
 10
232.6439708360614
 20
303.9493379251771
 42
0.0
 10
232.6439708360614
 20
305.5993379251771
 42
0.0
 10
232.6439708360614
 20
307.1993379251771
 42
0.0
 10
230.1439708360614
 20
307.1993379251771
 42
0.0
 10
230.1439708360614
 20
301.9493379251771
 42
0.0
 10
230.2252288360615
 20
301.9493379251771
 42
-0.414213562373095
 10
231.7252288360615
 20
303.4493379251771
 42
0.0
 97
        0
 92
        7
 72
     1
 73
     1
 93
       13
 10
230.2615569271366
 20
301.6212129655744
 42
0.0042081345124612
 10
230.3589708360614
 20
301.2031912458505
 42
0.1809852523878503
 10
234.2427044382792
 20
302.8175137778555
 42
0.0
 10
233.4798428360614
 20
303.0826179251771
 42
0.0
 10
233.4798425222407
 20
303.0826186349275
 42
-0.3193186334445322
 10
233.1439708360614
 20
303.5549129251772
 42
0.0
 10
233.1439708360614
 20
305.5993379251771
 42
0.0
 10
232.6439708360614
 20
305.5993379251771
 42
0.0
 10
232.6439708360614
 20
303.9493379251771
 42
-0.414213562373095
 10
232.1439708360614
 20
303.4493379251771
 42
0.0
 10
231.7252288360615
 20
303.4493379251771
 42
0.414213562373095
 10
230.2252288360615
 20
301.9493379251771
 42
0.0551892454187815
 10
230.2615574296541
 20
301.6212129275535
 42
0.0
 97
        0
 92
        7
 72
     0
 73
     1
 93
        4
 10
232.6439708360614
 20
305.5993379251771
 10
233.1439708360614
 20
305.5993379251771
 10
233.1439708360614
 20
307.1993379251771
 10
232.6439708360614
 20
307.1993379251771
 97
        0
 92
        7
 72
     1
 73
     1
 93
       11
 10
235.2118425222407
 20
304.3143286349275
 42
-0.3193186334445322
 10
234.8759708360614
 20
304.7866229251771
 42
0.0
 10
234.8759708360614
 20
307.1993379251771
 42
0.0
 10
233.1439708360614
 20
307.1993379251771
 42
0.0
 10
233.1439708360614
 20
305.5993379251771
 42
0.0
 10
233.1439708360614
 20
303.5549129251772
 42
0.3193186334445322
 10
233.4798425222407
 20
303.0826186349275
 42
0.0
 10
233.4798428360614
 20
303.0826179251771
 42
0.0
 10
234.2427044382792
 20
302.8175137778556
 42
0.0767608636239135
 10
235.3736154988036
 20
304.2581108510715
 42
0.0
 10
235.2118428360614
 20
304.3143289251772
 42
0.0
 97
        0
 92
        7
 72
     1
 73
     1
 93
        6
 10
234.8759708360614
 20
304.7866229251771
 42
0.3193186334445322
 10
235.2118425222407
 20
304.3143286349275
 42
0.0
 10
235.2118428360614
 20
304.3143289251772
 42
0.0
 10
235.3736154988036
 20
304.2581108510715
 42
0.1287861006004108
 10
236.1439708360614
 20
307.1993379251771
 42
0.0
 10
234.8759708360614
 20
307.1993379251771
 42
0.0
 97
        0
 75
     0
 76
     0
 52
45.0
 41
1.0
 77
     0
 78
     1
 53
45.0
 43
102.0018620858299
 44
305.7967905501497
 45
-0.7071067811865475
 46
0.7071067811865476
 79
     0
 47
0.0
 98
       18
 10
228.3607397239657
 20
311.8184952182432
 10
224.6144938292356
 20
308.2163357040797
 10
224.7346596192785
 20
308.2694300344187
 10
226.0252805912735
 20
307.8256152565066
 10
230.9778415101982
 20
308.4540109482112
 10
231.7954263289657
 20
311.5608332595276
 10
233.6622449984847
 20
310.1436862403306
 10
235.2974146360196
 20
308.4540109482112
 10
232.9536714888862
 20
308.2768675708116
 10
224.5461742692276
 20
306.5599394514
 10
224.696064819335
 20
306.5326866241078
 10
225.2411213651799
 20
305.4834527733562
 10
227.6393701668978
 20
304.9520226411573
 10
231.1141056466594
 20
304.8293849183423
 10
231.9180640517808
 20
302.7854228714236
 10
232.9809243161785
 20
306.1783998693085
 10
233.7712563076537
 20
305.9740036646166
 10
235.3382938769579
 20
305.9467508373244
1001
ACAD
1010
0.0
1020
0.0
1030
0.0
1001
AcadAnnotative
1000
AnnotativeData
1002
{
1070
     1
1070
     0
1002
}
  0
TEXT
  5
1417F
330
18
100
AcDbEntity
  8
6
100
AcDbText
 10
246.118241097285
 20
234.261189688569
 30
0.0
 40
4.0
  1
取付脚ピッチ
 41
0.7
  7
EXTFONT
100
AcDbText
  0
TEXT
  5
14180
330
18
100
AcDbEntity
  8
5
100
AcDbText
 10
42.570589722977
 20
195.682904147487
 30
0.0
 40
5.0
  1
※ 切欠は各シリーズをご参照ください。
 41
0.7
  7
EXTFONT
100
AcDbText
  0
LINE
  5
14183
330
18
100
AcDbEntity
  8
10
  6
Continuous
100
AcDbLine
 10
129.092786836061
 20
310.699337925177
 30
0.0
 11
90.592786836061
 21
310.699337925177
 31
0.0
  0
LINE
  5
144A2
330
18
100
AcDbEntity
  8
6
100
AcDbLine
 10
141.592786836061
 20
269.699337925177
 30
0.0
 11
167.592786836061
 21
269.699337925177
 31
0.0
  0
LINE
  5
144A3
330
18
100
AcDbEntity
  8
6
100
AcDbLine
 10
141.592786836061
 20
344.699337925177
 30
0.0
 11
167.592786836061
 21
344.699337925177
 31
0.0
  0
LINE
  5
144A4
330
18
100
AcDbEntity
  8
6
100
AcDbLine
 10
165.592786836061
 20
272.199337925177
 30
0.0
 11
165.592786836061
 21
342.199337925177
 31
0.0
  0
LINE
  5
144A8
330
18
100
AcDbEntity
  8
6
100
AcDbLine
 10
89.592786836061
 20
269.699337925177
 30
0.0
 11
63.592786836061
 21
269.699337925177
 31
0.0
  0
LINE
  5
144A9
330
18
100
AcDbEntity
  8
6
100
AcDbLine
 10
89.592786836061
 20
344.699337925177
 30
0.0
 11
63.592786836061
 21
344.699337925177
 31
0.0
  0
LINE
  5
144AA
330
18
100
AcDbEntity
  8
6
100
AcDbLine
 10
65.592786836061
 20
272.199337925177
 30
0.0
 11
65.592786836061
 21
342.199337925177
 31
0.0
  0
LINE
  5
144AE
330
18
100
AcDbEntity
  8
6
100
AcDbLine
 10
150.592786836061
 20
273.199337925177
 30
0.0
 11
150.592786836061
 21
220.716975925177
 31
0.0
  0
LINE
  5
144AF
330
18
100
AcDbEntity
  8
6
100
AcDbLine
 10
140.592786836061
 20
273.199337925177
 30
0.0
 11
140.592786836061
 21
220.716975925177
 31
0.0
  0
LINE
  5
144B0
330
18
100
AcDbEntity
  8
6
100
AcDbLine
 10
148.092786836061
 20
222.716975925177
 30
0.0
 11
143.092786836061
 21
222.716975925177
 31
0.0
  0
LINE
  5
14518
330
18
100
AcDbEntity
  8
6
100
AcDbLine
 10
90.592786836061
 20
268.699337925177
 30
0.0
 11
90.592786836061
 21
220.716975925177
 31
0.0
  0
LINE
  5
14519
330
18
100
AcDbEntity
  8
6
100
AcDbLine
 10
140.592786836061
 20
268.699337925177
 30
0.0
 11
140.592786836061
 21
220.716975925177
 31
0.0
  0
LINE
  5
1451A
330
18
100
AcDbEntity
  8
6
100
AcDbLine
 10
93.092786836061
 20
222.716975925177
 30
0.0
 11
138.092786836061
 21
222.716975925177
 31
0.0
  0
LINE
  5
1451E
330
18
100
AcDbEntity
  8
6
100
AcDbLine
 10
90.592786836061
 20
268.699337925177
 30
0.0
 11
90.592786836061
 21
220.716975925177
 31
0.0
  0
LINE
  5
1451F
330
18
100
AcDbEntity
  8
6
100
AcDbLine
 10
80.592786836061
 20
273.199337925177
 30
0.0
 11
80.592786836061
 21
220.716975925177
 31
0.0
  0
LINE
  5
14520
330
18
100
AcDbEntity
  8
6
100
AcDbLine
 10
88.092786836061
 20
222.716975925177
 30
0.0
 11
83.092786836061
 21
222.716975925177
 31
0.0
  0
LINE
  5
1455E
330
18
100
AcDbEntity
  8
6
100
AcDbLine
 10
199.048987603832
 20
354.57645323219
 30
0.0
 11
217.315654270499
 21
354.57645323219
 31
0.0
  0
LINE
  5
1455F
330
18
100
AcDbEntity
  8
6
100
AcDbLine
 10
217.315654270499
 20
354.57645323219
 30
0.0
 11
244.224727071613
 21
320.874867736214
 31
0.0
  0
LINE
  5
14560
330
18
100
AcDbEntity
  8
6
100
AcDbLine
 10
266.06321460051
 20
293.523808114141
 30
0.0
 11
267.62310656686
 21
291.570160998278
 31
0.0
  0
LINE
  5
14562
330
18
100
AcDbEntity
  8
6
100
AcDbLine
 10
264.50332263416
 20
295.477455230003
 30
0.0
 11
245.784619037962
 21
318.921220620351
 31
0.0
  0
LINE
  5
14565
330
18
100
AcDbEntity
  8
6
100
AcDbLine
 10
321.241120621153
 20
337.501197638969
 30
0.0
 11
297.841120621153
 21
337.501197638969
 31
0.0
  0
LINE
  5
14566
330
18
100
AcDbEntity
  8
6
100
AcDbLine
 10
297.841120621153
 20
337.501197638969
 30
0.0
 11
284.430681008607
 21
314.539236827519
 31
0.0
  0
LINE
  5
14567
330
18
100
AcDbEntity
  8
6
100
AcDbLine
 10
275.857260663516
 20
299.859439022836
 30
0.0
 11
274.596463553943
 21
297.700645228029
 31
0.0
  0
LINE
  5
14569
330
18
100
AcDbEntity
  8
6
100
AcDbLine
 10
277.118057773088
 20
302.018232817642
 30
0.0
 11
283.169883899035
 21
312.380443032712
 31
0.0
  0
LINE
  5
1456C
330
18
100
AcDbEntity
  8
6
100
AcDbLine
 10
280.143970836061
 20
294.178310384728
 30
0.0
 11
280.143970836061
 21
237.3249218707
 31
0.0
  0
LINE
  5
1456D
330
18
100
AcDbEntity
  8
6
100
AcDbLine
 10
230.143970836061
 20
294.178310384728
 30
0.0
 11
230.143970836061
 21
237.3249218707
 31
0.0
  0
LINE
  5
1456E
330
18
100
AcDbEntity
  8
6
100
AcDbLine
 10
277.643970836061
 20
239.3249218707
 30
0.0
 11
232.643970836061
 21
239.3249218707
 31
0.0
  0
TEXT
  5
1460B
330
18
100
AcDbEntity
  8
5
100
AcDbText
 10
-96.200546345073
 20
398.086943342896
 30
0.0
 40
8.0
  1
2H (両面ケースハンドル）
 41
0.7
  7
EXTFONT
100
AcDbText
  0
LINE
  5
1460C
330
18
100
AcDbEntity
  8
5
100
AcDbLine
 10
-98.124081040964
 20
396.713884155962
 30
0.0
 11
-6.2717686036
 21
396.713884155962
 31
0.0
  0
LINE
  5
14629
330
18
100
AcDbEntity
  8
6
100
AcDbLine
 10
166.262659811061
 20
272.199337925177
 30
0.0
 11
165.592786836061
 21
269.699337925177
 31
0.0
  0
LINE
  5
1462A
330
18
100
AcDbEntity
  8
6
100
AcDbLine
 10
165.592786836061
 20
269.699337925177
 30
0.0
 11
164.922913861061
 21
272.199337925177
 31
0.0
  0
LINE
  5
1462B
330
18
100
AcDbEntity
  8
6
100
AcDbLine
 10
165.592786836061
 20
269.699337925177
 30
0.0
 11
165.592786836061
 21
272.199337925177
 31
0.0
  0
LINE
  5
1462C
330
18
100
AcDbEntity
  8
6
100
AcDbLine
 10
164.922913861061
 20
342.199337925177
 30
0.0
 11
165.592786836061
 21
344.699337925177
 31
0.0
  0
LINE
  5
1462D
330
18
100
AcDbEntity
  8
6
100
AcDbLine
 10
165.592786836061
 20
344.699337925177
 30
0.0
 11
166.262659811061
 21
342.199337925177
 31
0.0
  0
LINE
  5
1462E
330
18
100
AcDbEntity
  8
6
100
AcDbLine
 10
165.592786836061
 20
344.699337925177
 30
0.0
 11
165.592786836061
 21
342.199337925177
 31
0.0
  0
TEXT
  5
1462F
330
18
100
AcDbEntity
  8
6
100
AcDbText
 10
164.590009058284
 20
303.466004591844
 30
0.0
 40
4.0
  1
Ø75
 50
90.0
 41
0.7
  7
EXTFONT
100
AcDbText
  0
LINE
  5
14630
330
18
100
AcDbEntity
  8
6
100
AcDbLine
 10
66.262659811061
 20
272.199337925177
 30
0.0
 11
65.592786836061
 21
269.699337925177
 31
0.0
  0
LINE
  5
14631
330
18
100
AcDbEntity
  8
6
100
AcDbLine
 10
65.592786836061
 20
269.699337925177
 30
0.0
 11
64.922913861061
 21
272.199337925177
 31
0.0
  0
LINE
  5
14632
330
18
100
AcDbEntity
  8
6
100
AcDbLine
 10
65.592786836061
 20
269.699337925177
 30
0.0
 11
65.592786836061
 21
272.199337925177
 31
0.0
  0
LINE
  5
14633
330
18
100
AcDbEntity
  8
6
100
AcDbLine
 10
64.922913861061
 20
342.199337925177
 30
0.0
 11
65.592786836061
 21
344.699337925177
 31
0.0
  0
LINE
  5
14634
330
18
100
AcDbEntity
  8
6
100
AcDbLine
 10
65.592786836061
 20
344.699337925177
 30
0.0
 11
66.262659811061
 21
342.199337925177
 31
0.0
  0
LINE
  5
14635
330
18
100
AcDbEntity
  8
6
100
AcDbLine
 10
65.592786836061
 20
344.699337925177
 30
0.0
 11
65.592786836061
 21
342.199337925177
 31
0.0
  0
TEXT
  5
14636
330
18
100
AcDbEntity
  8
6
100
AcDbText
 10
64.590009058284
 20
303.466004591844
 30
0.0
 40
4.0
  1
Ø75
 50
90.0
 41
0.7
  7
EXTFONT
100
AcDbText
  0
LINE
  5
14637
330
18
100
AcDbEntity
  8
6
100
AcDbLine
 10
148.092786836061
 20
223.386848900177
 30
0.0
 11
150.592786836061
 21
222.716975925177
 31
0.0
  0
LINE
  5
14638
330
18
100
AcDbEntity
  8
6
100
AcDbLine
 10
150.592786836061
 20
222.716975925177
 30
0.0
 11
148.092786836061
 21
222.047102950177
 31
0.0
  0
LINE
  5
14639
330
18
100
AcDbEntity
  8
6
100
AcDbLine
 10
150.592786836061
 20
222.716975925177
 30
0.0
 11
148.092786836061
 21
222.716975925177
 31
0.0
  0
LINE
  5
1463A
330
18
100
AcDbEntity
  8
6
100
AcDbLine
 10
143.092786836061
 20
222.047102950177
 30
0.0
 11
140.592786836061
 21
222.716975925177
 31
0.0
  0
LINE
  5
1463B
330
18
100
AcDbEntity
  8
6
100
AcDbLine
 10
140.592786836061
 20
222.716975925177
 30
0.0
 11
143.092786836061
 21
223.386848900177
 31
0.0
  0
LINE
  5
1463C
330
18
100
AcDbEntity
  8
6
100
AcDbLine
 10
140.592786836061
 20
222.716975925177
 30
0.0
 11
143.092786836061
 21
222.716975925177
 31
0.0
  0
TEXT
  5
1463D
330
18
100
AcDbEntity
  8
6
100
AcDbText
 10
143.901120169395
 20
223.716975925177
 30
0.0
 40
4.0
  1
10
 41
0.7
  7
EXTFONT
100
AcDbText
  0
LINE
  5
146AE
330
18
100
AcDbEntity
  8
6
100
AcDbLine
 10
93.092786836061
 20
222.047102950177
 30
0.0
 11
90.592786836061
 21
222.716975925177
 31
0.0
  0
LINE
  5
146AF
330
18
100
AcDbEntity
  8
6
100
AcDbLine
 10
90.592786836061
 20
222.716975925177
 30
0.0
 11
93.092786836061
 21
223.386848900177
 31
0.0
  0
LINE
  5
146B0
330
18
100
AcDbEntity
  8
6
100
AcDbLine
 10
90.592786836061
 20
222.716975925177
 30
0.0
 11
93.092786836061
 21
222.716975925177
 31
0.0
  0
LINE
  5
146B1
330
18
100
AcDbEntity
  8
6
100
AcDbLine
 10
138.092786836061
 20
223.386848900177
 30
0.0
 11
140.592786836061
 21
222.716975925177
 31
0.0
  0
LINE
  5
146B2
330
18
100
AcDbEntity
  8
6
100
AcDbLine
 10
140.592786836061
 20
222.716975925177
 30
0.0
 11
138.092786836061
 21
222.047102950177
 31
0.0
  0
LINE
  5
146B3
330
18
100
AcDbEntity
  8
6
100
AcDbLine
 10
140.592786836061
 20
222.716975925177
 30
0.0
 11
138.092786836061
 21
222.716975925177
 31
0.0
  0
TEXT
  5
146B4
330
18
100
AcDbEntity
  8
6
100
AcDbText
 10
109.458064613839
 20
223.719753702955
 30
0.0
 40
4.0
  1
30~50
 41
0.7
  7
EXTFONT
100
AcDbText
  0
LINE
  5
146B5
330
18
100
AcDbEntity
  8
6
100
AcDbLine
 10
88.092786836061
 20
223.386848900177
 30
0.0
 11
90.592786836061
 21
222.716975925177
 31
0.0
  0
LINE
  5
146B6
330
18
100
AcDbEntity
  8
6
100
AcDbLine
 10
90.592786836061
 20
222.716975925177
 30
0.0
 11
88.092786836061
 21
222.047102950177
 31
0.0
  0
LINE
  5
146B7
330
18
100
AcDbEntity
  8
6
100
AcDbLine
 10
90.592786836061
 20
222.716975925177
 30
0.0
 11
88.092786836061
 21
222.716975925177
 31
0.0
  0
LINE
  5
146B8
330
18
100
AcDbEntity
  8
6
100
AcDbLine
 10
83.092786836061
 20
222.047102950177
 30
0.0
 11
80.592786836061
 21
222.716975925177
 31
0.0
  0
LINE
  5
146B9
330
18
100
AcDbEntity
  8
6
100
AcDbLine
 10
80.592786836061
 20
222.716975925177
 30
0.0
 11
83.092786836061
 21
223.386848900177
 31
0.0
  0
LINE
  5
146BA
330
18
100
AcDbEntity
  8
6
100
AcDbLine
 10
80.592786836061
 20
222.716975925177
 30
0.0
 11
83.092786836061
 21
222.716975925177
 31
0.0
  0
TEXT
  5
146BB
330
18
100
AcDbEntity
  8
6
100
AcDbText
 10
83.901120169395
 20
223.716975925177
 30
0.0
 40
4.0
  1
10
 41
0.7
  7
EXTFONT
100
AcDbText
  0
TEXT
  5
146FB
330
18
100
AcDbEntity
  8
6
  6
Continuous
 62
     2
100
AcDbText
 10
199.048987603832
 20
355.57645323219
 30
0.0
 40
4.0
  1
Ø30貫通穴
 41
0.7
  7
EXTFONT
100
AcDbText
  0
LINE
  5
146FC
330
18
100
AcDbEntity
  8
6
100
AcDbLine
 10
265.539736438269
 20
293.10583632527
 30
0.0
 11
264.50332263416
 21
295.477455230003
 31
0.0
  0
LINE
  5
146FD
330
18
100
AcDbEntity
  8
6
100
AcDbLine
 10
264.50332263416
 20
295.477455230003
 30
0.0
 11
266.586692762751
 21
293.941779903012
 31
0.0
  0
LINE
  5
146FE
330
18
100
AcDbEntity
  8
6
100
AcDbLine
 10
264.50332263416
 20
295.477455230003
 30
0.0
 11
266.06321460051
 21
293.523808114141
 31
0.0
  0
LINE
  5
146FF
330
18
100
AcDbEntity
  8
6
100
AcDbLine
 10
244.748205233854
 20
321.292839525085
 30
0.0
 11
245.784619037962
 21
318.921220620351
 31
0.0
  0
LINE
  5
14700
330
18
100
AcDbEntity
  8
6
100
AcDbLine
 10
245.784619037962
 20
318.921220620351
 30
0.0
 11
243.701248909372
 21
320.456895947343
 31
0.0
  0
LINE
  5
14701
330
18
100
AcDbEntity
  8
6
100
AcDbLine
 10
245.784619037962
 20
318.921220620351
 30
0.0
 11
244.224727071613
 21
320.874867736214
 31
0.0
  0
TEXT
  5
14702
330
18
100
AcDbEntity
  8
6
  6
Continuous
 62
     2
100
AcDbText
 10
298.841120621153
 20
338.501197638969
 30
0.0
 40
4.0
  1
2-Ø12貫通穴
 41
0.7
  7
EXTFONT
100
AcDbText
  0
LINE
  5
14703
330
18
100
AcDbEntity
  8
6
100
AcDbLine
 10
275.27881361482
 20
300.1972685871
 30
0.0
 11
277.118057773088
 21
302.018232817642
 31
0.0
  0
LINE
  5
14704
330
18
100
AcDbEntity
  8
6
100
AcDbLine
 10
277.118057773088
 20
302.018232817642
 30
0.0
 11
276.435707712211
 21
299.521609458572
 31
0.0
  0
LINE
  5
14705
330
18
100
AcDbEntity
  8
6
100
AcDbLine
 10
277.118057773088
 20
302.018232817642
 30
0.0
 11
275.857260663516
 21
299.859439022836
 31
0.0
  0
LINE
  5
14706
330
18
100
AcDbEntity
  8
6
100
AcDbLine
 10
285.009128057303
 20
314.201407263254
 30
0.0
 11
283.169883899035
 21
312.380443032712
 31
0.0
  0
LINE
  5
14707
330
18
100
AcDbEntity
  8
6
100
AcDbLine
 10
283.169883899035
 20
312.380443032712
 30
0.0
 11
283.852233959912
 21
314.877066391783
 31
0.0
  0
LINE
  5
14708
330
18
100
AcDbEntity
  8
6
100
AcDbLine
 10
283.169883899035
 20
312.380443032712
 30
0.0
 11
284.430681008607
 21
314.539236827519
 31
0.0
  0
LINE
  5
14709
330
18
100
AcDbEntity
  8
6
100
AcDbLine
 10
277.643970836061
 20
239.9947948457
 30
0.0
 11
280.143970836061
 21
239.3249218707
 31
0.0
  0
LINE
  5
1470A
330
18
100
AcDbEntity
  8
6
100
AcDbLine
 10
280.143970836061
 20
239.3249218707
 30
0.0
 11
277.643970836061
 21
238.6550488957
 31
0.0
  0
LINE
  5
1470B
330
18
100
AcDbEntity
  8
6
100
AcDbLine
 10
280.143970836061
 20
239.3249218707
 30
0.0
 11
277.643970836061
 21
239.3249218707
 31
0.0
  0
LINE
  5
1470C
330
18
100
AcDbEntity
  8
6
100
AcDbLine
 10
232.643970836061
 20
238.6550488957
 30
0.0
 11
230.143970836061
 21
239.3249218707
 31
0.0
  0
LINE
  5
1470D
330
18
100
AcDbEntity
  8
6
100
AcDbLine
 10
230.143970836061
 20
239.3249218707
 30
0.0
 11
232.643970836061
 21
239.9947948457
 31
0.0
  0
LINE
  5
1470E
330
18
100
AcDbEntity
  8
6
100
AcDbLine
 10
230.143970836061
 20
239.3249218707
 30
0.0
 11
232.643970836061
 21
239.3249218707
 31
0.0
  0
TEXT
  5
1470F
330
18
100
AcDbEntity
  8
6
100
AcDbText
 10
243.455915280506
 20
240.327699648477
 30
0.0
 40
4.0
  1
44　又は　50
 41
0.7
  7
EXTFONT
100
AcDbText
  0
LINE
  5
1471E
330
18
100
AcDbEntity
  8
10
  6
Continuous
100
AcDbLine
 10
137.192786836061
 20
320.899337925177
 30
0.0
 11
140.592786836061
 21
320.899337925177
 31
0.0
  0
ARC
  5
1471F
330
18
100
AcDbEntity
  8
10
  6
Continuous
100
AcDbCircle
 10
137.192786836061
 20
319.299337925177
 30
0.0
 40
1.6
100
AcDbArc
 50
90.0
 51
180.0
  0
LINE
  5
14720
330
18
100
AcDbEntity
  8
10
  6
Continuous
100
AcDbLine
 10
135.592786836061
 20
309.699337925177
 30
0.0
 11
135.592786836061
 21
319.299337925177
 31
0.0
  0
LINE
  5
14721
330
18
100
AcDbEntity
  8
10
  6
Continuous
100
AcDbLine
 10
135.592786836061
 20
295.099337925177
 30
0.0
 11
135.592786836061
 21
304.699337925177
 31
0.0
  0
ARC
  5
14722
330
18
100
AcDbEntity
  8
10
  6
Continuous
100
AcDbCircle
 10
137.192786836061
 20
295.099337925177
 30
0.0
 40
1.6
100
AcDbArc
 50
180.0
 51
270.0
  0
LINE
  5
14723
330
18
100
AcDbEntity
  8
10
  6
Continuous
100
AcDbLine
 10
140.592786836061
 20
293.499337925177
 30
0.0
 11
137.192786836061
 21
293.499337925177
 31
0.0
  0
LINE
  5
14735
330
18
100
AcDbEntity
  8
6
100
AcDbLine
 10
140.592786836061
 20
321.899337925177
 30
0.0
 11
140.592786836061
 21
352.620519894956
 31
0.0
  0
LINE
  5
14736
330
18
100
AcDbEntity
  8
6
100
AcDbLine
 10
135.592786836061
 20
320.299337925177
 30
0.0
 11
135.592786836061
 21
352.620519894956
 31
0.0
  0
LINE
  5
14737
330
18
100
AcDbEntity
  8
6
100
AcDbLine
 10
140.592786836061
 20
350.620519894956
 30
0.0
 11
135.592786836061
 21
350.620519894956
 31
0.0
  0
LINE
  5
14738
330
18
100
AcDbEntity
  8
6
  6
Continuous
 62
     2
100
AcDbLine
 10
143.092786836061
 20
350.620519894956
 30
0.0
 11
145.592786836061
 21
350.620519894956
 31
0.0
  0
LINE
  5
14739
330
18
100
AcDbEntity
  8
6
  6
Continuous
 62
     2
100
AcDbLine
 10
133.092786836061
 20
350.620519894956
 30
0.0
 11
130.592786836061
 21
350.620519894956
 31
0.0
  0
TEXT
  5
1473D
330
18
100
AcDbEntity
  8
6
  6
Continuous
 62
     2
100
AcDbText
 10
137.159453502728
 20
351.623297672734
 30
0.0
 40
4.0
  1
5
 41
0.7
  7
EXTFONT
100
AcDbText
  0
LINE
  5
1473E
330
18
100
AcDbEntity
  8
6
  6
Continuous
 62
     2
100
AcDbLine
 10
133.092786836061
 20
351.290392869956
 30
0.0
 11
135.592786836061
 21
350.620519894956
 31
0.0
  0
LINE
  5
1473F
330
18
100
AcDbEntity
  8
6
  6
Continuous
 62
     2
100
AcDbLine
 10
135.592786836061
 20
350.620519894956
 30
0.0
 11
133.092786836061
 21
349.950646919956
 31
0.0
  0
LINE
  5
14740
330
18
100
AcDbEntity
  8
6
  6
Continuous
 62
     2
100
AcDbLine
 10
135.592786836061
 20
350.620519894956
 30
0.0
 11
133.092786836061
 21
350.620519894956
 31
0.0
  0
LINE
  5
14741
330
18
100
AcDbEntity
  8
6
  6
Continuous
 62
     2
100
AcDbLine
 10
143.092786836061
 20
349.950646919956
 30
0.0
 11
140.592786836061
 21
350.620519894956
 31
0.0
  0
LINE
  5
14742
330
18
100
AcDbEntity
  8
6
  6
Continuous
 62
     2
100
AcDbLine
 10
140.592786836061
 20
350.620519894956
 30
0.0
 11
143.092786836061
 21
351.290392869956
 31
0.0
  0
LINE
  5
14743
330
18
100
AcDbEntity
  8
6
  6
Continuous
 62
     2
100
AcDbLine
 10
140.592786836061
 20
350.620519894956
 30
0.0
 11
143.092786836061
 21
350.620519894956
 31
0.0
  0
LINE
  5
14744
330
18
100
AcDbEntity
  8
6
  6
Continuous
 62
     2
100
AcDbLine
 10
90.592786836061
 20
350.620519894956
 30
0.0
 11
88.092786836061
 21
350.620519894956
 31
0.0
  0
LINE
  5
14745
330
18
100
AcDbEntity
  8
6
  6
Continuous
 62
     2
100
AcDbLine
 10
90.592786836061
 20
350.620519894956
 30
0.0
 11
88.092786836061
 21
351.290392869956
 31
0.0
  0
LINE
  5
14746
330
18
100
AcDbEntity
  8
6
  6
Continuous
 62
     2
100
AcDbLine
 10
88.092786836061
 20
349.950646919956
 30
0.0
 11
90.592786836061
 21
350.620519894956
 31
0.0
  0
LINE
  5
14747
330
18
100
AcDbEntity
  8
6
  6
Continuous
 62
     2
100
AcDbLine
 10
95.592786836061
 20
350.620519894956
 30
0.0
 11
98.092786836061
 21
350.620519894956
 31
0.0
  0
LINE
  5
14748
330
18
100
AcDbEntity
  8
6
  6
Continuous
 62
     2
100
AcDbLine
 10
95.592786836061
 20
350.620519894956
 30
0.0
 11
98.092786836061
 21
349.950646919956
 31
0.0
  0
LINE
  5
14749
330
18
100
AcDbEntity
  8
6
  6
Continuous
 62
     2
100
AcDbLine
 10
98.092786836061
 20
351.290392869956
 30
0.0
 11
95.592786836061
 21
350.620519894956
 31
0.0
  0
TEXT
  5
1474A
330
18
100
AcDbEntity
  8
6
  6
Continuous
 62
     2
100
AcDbText
 10
92.223588740642
 20
351.716512092151
 30
0.0
 40
4.0
  1
5
 41
0.7
  7
EXTFONT
100
AcDbText
  0
LINE
  5
1474B
330
18
100
AcDbEntity
  8
6
  6
Continuous
 62
     2
100
AcDbLine
 10
98.092786836061
 20
350.620519894956
 30
0.0
 11
100.592786836061
 21
350.620519894956
 31
0.0
  0
LINE
  5
1474C
330
18
100
AcDbEntity
  8
6
  6
Continuous
 62
     2
100
AcDbLine
 10
88.092786836061
 20
350.620519894956
 30
0.0
 11
85.592786836061
 21
350.620519894956
 31
0.0
  0
LINE
  5
1474D
330
18
100
AcDbEntity
  8
6
100
AcDbLine
 10
90.592786836061
 20
350.620519894956
 30
0.0
 11
95.592786836061
 21
350.620519894956
 31
0.0
  0
LINE
  5
1474E
330
18
100
AcDbEntity
  8
6
100
AcDbLine
 10
95.592786836061
 20
319.299337925177
 30
0.0
 11
95.592786836061
 21
352.620519894956
 31
0.0
  0
LINE
  5
1474F
330
18
100
AcDbEntity
  8
6
100
AcDbLine
 10
90.592786836061
 20
321.899337925177
 30
0.0
 11
90.592786836061
 21
352.620519894956
 31
0.0
  0
TEXT
  5
148A0
330
18
100
AcDbEntity
  8
5
100
AcDbText
 10
42.63607152416
 20
185.053935790264
 30
0.0
 40
5.0
  1
※　ISD-60、IS-60、535シリーズの錠に使用した場合、取付脚は上下になります。
 41
0.7
  7
EXTFONT
100
AcDbText
  0
TEXT
  5
148D2
330
18
100
AcDbEntity
  8
5
100
AcDbText
 10
50.246402976633
 20
174.929476982957
 30
0.0
 40
5.0
  1
IS,ISDシリーズ：一般取付脚ピッチBS60・90・・・・・・50ｍｍ、BS64・76・100・・・・・・44ｍｍ
 41
0.7
  7
EXTFONT
100
AcDbText
  0
TEXT
  5
149C1
330
18
100
AcDbEntity
  8
5
100
AcDbText
 10
50.246402976633
 20
164.929476982957
 30
0.0
 40
5.0
  1
CHシリーズ,535シリーズ：取付脚ピッチ・・・・・・44ｍｍ
 41
0.7
  7
EXTFONT
100
AcDbText
  0
VIEWPORT
  5
AE15
330
15
100
AcDbEntity
 67
     1
  8
0
100
AcDbViewport
 10
206.825012207031
 20
145.325000047684
 30
0.0
 40
563.524210526316
 41
314.226
 68
     1
 69
     1
 12
206.825012207031
 22
145.325000047684
 13
0.0
 23
0.0
 14
10.0
 24
10.0
 15
10.0
 25
10.0
 16
0.0
 26
0.0
 36
1.0
 17
0.0
 27
0.0
 37
0.0
 42
50.0
 43
0.0
 44
0.0
 45
314.226
 50
0.0
 51
0.0
 72
   100
 90
    32800
  1

281
     0
 71
     1
 74
     0
110
0.0
120
0.0
130
0.0
111
1.0
121
0.0
131
0.0
112
0.0
122
1.0
132
0.0
 79
     0
146
0.0
170
     0
 61
     5
348
14049
292
     1
282
     1
141
0.0
142
0.0
 63
   256
  0
VIEWPORT
  5
AE17
330
15
100
AcDbEntity
 67
     1
  8
6
100
AcDbViewport
 10
206.825006127357
 20
145.325006127357
 30
0.0
 40
330.920009803772
 41
232.520009803772
 68
     2
 69
     2
 12
482.306502945028
 22
295.301947010271
 13
0.0
 23
0.0
 14
1.0
 24
1.0
 15
8.0
 25
8.0
 16
0.0
 26
0.0
 36
1.0
 17
0.0
 27
0.0
 37
0.0
 42
50.0
 43
0.0
 44
0.0
 45
395.74748595145
 50
0.0
 51
0.0
 72
   100
 90
    32768
  1

281
     0
 71
     1
 74
     0
110
0.0
120
0.0
130
0.0
111
1.0
121
0.0
131
0.0
112
0.0
122
1.0
132
0.0
 79
     0
146
0.0
170
     0
 61
     5
348
14049
292
     1
282
     1
141
0.0
142
0.0
 63
   256
  0
ENDSEC
  0
SECTION
  2
OBJECTS
  0
DICTIONARY
  5
C
330
0
100
AcDbDictionary
281
     1
  3
ACAD_DETAILVIEWSTYLE
350
149BE
  3
ACAD_GROUP
350
D
  3
ACAD_LAYOUT
350
3563
  3
ACAD_MATERIAL
350
1407F
  3
ACAD_MLEADERSTYLE
350
14085
  3
ACAD_MLINESTYLE
350
E
  3
ACAD_PLOTSETTINGS
350
3564
  3
ACAD_PLOTSTYLENAME
350
3561
  3
ACAD_SCALELIST
350
1405D
  3
ACAD_SECTIONVIEWSTYLE
350
149BF
  3
ACAD_TABLESTYLE
350
14083
  3
ACAD_VISUALSTYLE
350
14044
  3
AcadDim
350
3B84
  3
ACDB_RECOMPOSE_DATA
350
149C7
  3
AcDbVariableDictionary
350
409E
  3
GRADE_DWG
350
9A4
  0
SUN
  5
14088
330
14043
100
AcDbSun
 90
        1
290
     0
 63
     7
 40
1.0
291
     1
 91
  2455826
 92
 54000000
292
     0
 70
     2
 71
   256
280
     1
  0
DICTIONARY
  5
14133
330
18
100
AcDbDictionary
280
     1
281
     1
  3
ACAD_SORTENTS
360
14134
  0
DICTIONARY
  5
141BB
330
14185
100
AcDbDictionary
280
     1
281
     1
  3
ACAD_SORTENTS
360
141BC
  0
DICTIONARY
  5
14316
330
142E0
100
AcDbDictionary
280
     1
281
     1
  3
ACAD_SORTENTS
360
14317
  0
DICTIONARY
  5
1489A
330
1486F
100
AcDbDictionary
280
     1
281
     1
  3
ACAD_SORTENTS
360
1489B
  0
DICTIONARY
  5
148CC
330
148A1
100
AcDbDictionary
280
     1
281
     1
  3
ACAD_SORTENTS
360
148CD
  0
DICTIONARY
  5
14242
330
14241
100
AcDbDictionary
280
     1
281
     1
  3
AcDbContextDataManager
360
14243
  0
DICTIONARY
  5
14248
330
14247
100
AcDbDictionary
280
     1
281
     1
  3
AcDbContextDataManager
360
14249
  0
DICTIONARY
  5
142A0
330
1429F
100
AcDbDictionary
280
     1
281
     1
  3
ACAD_DIMASSOC
360
142A1
  0
DICTIONARY
  5
142AF
330
142AE
100
AcDbDictionary
280
     1
281
     1
  3
ACAD_DIMASSOC
360
142B0
  0
DICTIONARY
  5
142BE
330
142BD
100
AcDbDictionary
280
     1
281
     1
  3
ACAD_DIMASSOC
360
142BF
  0
DICTIONARY
  5
1439D
330
1439C
100
AcDbDictionary
280
     1
281
     1
  3
AcDbContextDataManager
360
1439E
  0
DICTIONARY
  5
143A3
330
143A2
100
AcDbDictionary
280
     1
281
     1
  3
AcDbContextDataManager
360
143A4
  0
DICTIONARY
  5
143FB
330
143FA
100
AcDbDictionary
280
     1
281
     1
  3
ACAD_DIMASSOC
360
143FC
  0
DICTIONARY
  5
1440A
330
14409
100
AcDbDictionary
280
     1
281
     1
  3
ACAD_DIMASSOC
360
1440B
  0
DICTIONARY
  5
14419
330
14418
100
AcDbDictionary
280
     1
281
     1
  3
ACAD_DIMASSOC
360
1441A
  0
DICTIONARY
  5
14135
330
14131
100
AcDbDictionary
280
     1
281
     1
  3
AcDbContextDataManager
360
14136
  0
DICTIONARY
  5
1413F
330
1413E
100
AcDbDictionary
280
     1
281
     1
  3
AcDbContextDataManager
360
14140
  0
DICTIONARY
  5
149BE
102
{ACAD_REACTORS
330
C
102
}
330
C
100
AcDbDictionary
281
     1
  0
DICTIONARY
  5
D
102
{ACAD_REACTORS
330
C
102
}
330
C
100
AcDbDictionary
281
     1
  0
DICTIONARY
  5
3563
102
{ACAD_REACTORS
330
C
102
}
330
C
100
AcDbDictionary
281
     1
  3
Model
350
3565
  3
ﾚｲｱｳﾄ1
350
3566
  0
DICTIONARY
  5
1407F
102
{ACAD_REACTORS
330
C
102
}
330
C
100
AcDbDictionary
281
     1
  3
ByBlock
350
14081
  3
ByLayer
350
14080
  3
Global
350
14082
  0
DICTIONARY
  5
14085
102
{ACAD_REACTORS
330
C
102
}
330
C
100
AcDbDictionary
281
     1
  3
Standard
350
14086
  0
DICTIONARY
  5
E
102
{ACAD_REACTORS
330
C
102
}
330
C
100
AcDbDictionary
281
     1
  3
STANDARD
350
1B
  0
DICTIONARY
  5
3564
102
{ACAD_REACTORS
330
C
102
}
330
C
100
AcDbDictionary
281
     1
  0
ACDBDICTIONARYWDFLT
  5
3561
102
{ACAD_REACTORS
330
C
102
}
330
C
100
AcDbDictionary
281
     1
  3
Normal
350
3562
100
AcDbDictionaryWithDefault
340
3562
  0
DICTIONARY
  5
1405D
102
{ACAD_REACTORS
330
C
102
}
330
C
100
AcDbDictionary
281
     1
  3
A0
350
1405E
  3
A1
350
1405F
  3
A2
350
14060
  3
A3
350
14061
  3
A4
350
14062
  3
A5
350
14063
  3
A6
350
14064
  3
A7
350
14065
  3
A8
350
14066
  3
A9
350
14067
  3
B0
350
14068
  3
B1
350
14069
  3
B2
350
1406A
  3
B3
350
1406B
  3
B4
350
1406C
  3
B5
350
1406D
  3
B6
350
1406E
  3
B7
350
1406F
  3
B8
350
14070
  3
B9
350
14071
  3
C0
350
14072
  3
C1
350
14073
  3
C2
350
14074
  3
C3
350
14075
  3
C4
350
14076
  3
C5
350
14077
  3
C6
350
14078
  3
C7
350
14079
  3
C8
350
1407A
  3
C9
350
1407B
  3
D0
350
1407C
  3
D1
350
1407D
  3
D2
350
1407E
  0
DICTIONARY
  5
149BF
102
{ACAD_REACTORS
330
C
102
}
330
C
100
AcDbDictionary
281
     1
  0
DICTIONARY
  5
14083
102
{ACAD_REACTORS
330
C
102
}
330
C
100
AcDbDictionary
281
     1
  3
Standard
350
14084
  0
DICTIONARY
  5
14044
102
{ACAD_REACTORS
330
C
102
}
330
C
100
AcDbDictionary
281
     1
  3
2dWireframe
350
14049
  3
Basic
350
1404C
  3
Brighten
350
14050
  3
ColorChange
350
14054
  3
Conceptual
350
1404E
  3
Dim
350
1404F
  3
EdgeColorOff
350
14057
  3
Facepattern
350
14053
  3
Flat
350
14045
  3
FlatWithEdges
350
14046
  3
Gouraud
350
14047
  3
GouraudWithEdges
350
14048
  3
Hidden
350
1404B
  3
JitterOff
350
14055
  3
Linepattern
350
14052
  3
Modeling
350
14087
  3
OverhangOff
350
14056
  3
Realistic
350
1404D
  3
Shaded
350
1405C
  3
Shaded with edges
350
1405B
  3
Shades of Gray
350
14058
  3
Sketchy
350
14059
  3
Thicken
350
14051
  3
Wireframe
350
1404A
  3
X-Ray
350
1405A
  0
XRECORD
  5
3B84
102
{ACAD_REACTORS
330
C
102
}
330
C
100
AcDbXrecord
280
     1
 90
   990106
  3

 60
     0
 61
     0
 62
     1
 63
     3
 64
     0
 65
     0
 66
     0
 67
     3
 68
     1
 69
     0
 70
     0
 71
     0
 72
     0
 40
0.0
170
     0
  0
XRECORD
  5
149C7
102
{ACAD_REACTORS
330
C
102
}
330
C
100
AcDbXrecord
280
     1
 90
        1
330
14084
  0
DICTIONARY
  5
409E
102
{ACAD_REACTORS
330
C
102
}
330
C
100
AcDbDictionary
281
     1
  3
CANNOSCALE
350
149BD
  3
CMLEADERSTYLE
350
1408B
  3
CTABLESTYLE
350
1408A
  3
DIMASSOC
350
145A2
  3
HIDETEXT
350
145A3
  3
MSLTSCALE
350
1408C
  3
SORTENTS
350
409F
  0
DICTIONARY
  5
9A4
102
{ACAD_REACTORS
330
C
102
}
330
C
100
AcDbDictionary
281
     1
  3
VERSION
350
2D5B
  0
SORTENTSTABLE
  5
14134
102
{ACAD_REACTORS
330
14133
102
}
330
14133
100
AcDbSortentsTable
330
18
331
0
  5
136F2
331
136A5
  5
136A6
331
136A6
  5
136A7
331
136A7
  5
136A9
331
136A8
  5
136AA
331
136A9
  5
136BA
331
136BA
  5
136BC
331
136BF
  5
136C1
331
136C0
  5
136C2
331
136C1
  5
136C3
331
136C2
  5
136C4
331
136C3
  5
136C5
331
136C4
  5
136C6
331
136C5
  5
136C7
331
136C6
  5
136C8
331
136C7
  5
136C9
331
136C8
  5
136CA
331
136C9
  5
136CB
331
136CA
  5
136CC
331
136CB
  5
136CD
331
136CC
  5
136CE
331
136CD
  5
136CF
331
136CE
  5
136D0
331
136CF
  5
136D1
331
136D0
  5
136D2
331
136D1
  5
136D3
331
136D2
  5
136D4
331
136D3
  5
136D5
331
136D4
  5
136D6
331
136D5
  5
136D7
331
136D6
  5
136D8
331
136D7
  5
136D9
331
136D8
  5
136DA
331
136D9
  5
136DB
331
136DA
  5
136DC
331
136DB
  5
136DD
331
136DC
  5
136DE
331
136DD
  5
136DF
331
136DE
  5
136E0
331
136DF
  5
136E1
331
136E0
  5
136E2
331
136E1
  5
136E3
331
136E2
  5
136E4
331
136E3
  5
136E5
331
136E4
  5
136E6
331
136E5
  5
136E7
331
136E6
  5
136E8
331
136E7
  5
136E9
331
136E8
  5
136EA
331
136E9
  5
136EB
331
136EA
  5
136EC
331
136EB
  5
136ED
331
136EC
  5
136EE
331
136ED
  5
136EF
331
136EE
  5
136F0
331
136EF
  5
136F1
331
1412D
  5
1412F
331
1412F
  5
14131
331
14130
  5
14138
331
14131
  5
136A5
331
14138
  5
14139
331
14139
  5
1413A
331
1413E
  5
136A8
  0
SORTENTSTABLE
  5
141BC
102
{ACAD_REACTORS
330
141BB
330
141BB
102
}
330
141BB
100
AcDbSortentsTable
330
14185
  0
SORTENTSTABLE
  5
14317
102
{ACAD_REACTORS
330
14316
330
14316
102
}
330
14316
100
AcDbSortentsTable
330
142E0
  0
SORTENTSTABLE
  5
1489B
102
{ACAD_REACTORS
330
1489A
330
1489A
102
}
330
1489A
100
AcDbSortentsTable
330
1486F
  0
SORTENTSTABLE
  5
148CD
102
{ACAD_REACTORS
330
148CC
330
148CC
102
}
330
148CC
100
AcDbSortentsTable
330
148A1
  0
DICTIONARY
  5
14243
102
{ACAD_REACTORS
330
14242
102
}
330
14242
100
AcDbDictionary
281
     1
  3
ACDB_ANNOTATIONSCALES
350
14244
  0
DICTIONARY
  5
14249
102
{ACAD_REACTORS
330
14248
102
}
330
14248
100
AcDbDictionary
281
     1
  3
ACDB_ANNOTATIONSCALES
350
1424A
  0
DIMASSOC
  5
142A1
102
{ACAD_REACTORS
330
142A0
102
}
330
142A0
100
AcDbDimAssoc
330
1429F
 90
        2
 70
     0
 71
     1
  1
AcDbOsnapPointRef
 72
     3
331
1429C
 73
     2
 91
        0
 40
0.0
 10
0.0
 20
0.0
 30
0.0
 75
     0
  0
DIMASSOC
  5
142B0
102
{ACAD_REACTORS
330
142AF
102
}
330
142AF
100
AcDbDimAssoc
330
142AE
 90
        2
 70
     0
 71
     1
  1
AcDbOsnapPointRef
 72
     3
331
1429B
 73
     2
 91
        0
 40
0.0
 10
0.0
 20
0.0
 30
0.0
 75
     0
  0
DIMASSOC
  5
142BF
102
{ACAD_REACTORS
330
142BE
102
}
330
142BE
100
AcDbDimAssoc
330
142BD
 90
        3
 70
     0
 71
     1
  1
AcDbOsnapPointRef
 72
    13
331
1429A
 73
     2
 91
        0
 40
0.0
 10
0.0
 20
0.0
 30
0.0
 75
     0
  1
AcDbOsnapPointRef
 72
    13
331
1429D
 73
     2
 91
        0
 40
0.0
 10
0.0
 20
0.0
 30
0.0
 75
     0
  0
DICTIONARY
  5
1439E
102
{ACAD_REACTORS
330
1439D
102
}
330
1439D
100
AcDbDictionary
281
     1
  3
ACDB_ANNOTATIONSCALES
350
1439F
  0
DICTIONARY
  5
143A4
102
{ACAD_REACTORS
330
143A3
102
}
330
143A3
100
AcDbDictionary
281
     1
  3
ACDB_ANNOTATIONSCALES
350
143A5
  0
DIMASSOC
  5
143FC
102
{ACAD_REACTORS
330
143FB
102
}
330
143FB
100
AcDbDimAssoc
330
143FA
 90
        2
 70
     0
 71
     1
  1
AcDbOsnapPointRef
 72
     3
331
143F7
 73
     2
 91
        0
 40
0.0
 10
0.0
 20
0.0
 30
0.0
 75
     0
  0
DIMASSOC
  5
1440B
102
{ACAD_REACTORS
330
1440A
102
}
330
1440A
100
AcDbDimAssoc
330
14409
 90
        2
 70
     0
 71
     1
  1
AcDbOsnapPointRef
 72
     3
331
143F6
 73
     2
 91
        0
 40
0.0
 10
0.0
 20
0.0
 30
0.0
 75
     0
  0
DIMASSOC
  5
1441A
102
{ACAD_REACTORS
330
14419
102
}
330
14419
100
AcDbDimAssoc
330
14418
 90
        3
 70
     0
 71
     1
  1
AcDbOsnapPointRef
 72
    13
331
143F5
 73
     2
 91
        0
 40
0.0
 10
0.0
 20
0.0
 30
0.0
 75
     0
  1
AcDbOsnapPointRef
 72
    13
331
143F8
 73
     2
 91
        0
 40
0.0
 10
0.0
 20
0.0
 30
0.0
 75
     0
  0
DICTIONARY
  5
14136
102
{ACAD_REACTORS
330
14135
102
}
330
14135
100
AcDbDictionary
281
     1
  3
ACDB_ANNOTATIONSCALES
350
14137
  0
DICTIONARY
  5
14140
102
{ACAD_REACTORS
330
1413F
102
}
330
1413F
100
AcDbDictionary
281
     1
  3
ACDB_ANNOTATIONSCALES
350
14141
  0
LAYOUT
  5
3565
102
{ACAD_REACTORS
330
3563
102
}
330
3563
100
AcDbPlotSettings
  1

  2
RICOH imagio MP C3500 RPCS
  4
A3
  6

 40
5.08
 41
5.08
 42
5.08
 43
5.08
 44
297.0
 45
420.0
 46
19.65881969839
 47
0.0
 48
-137.6955
 49
123.5859
140
383.2222
141
438.1935
142
1.0
143
1.271026986141
 70
 11956
 72
     1
 73
     1
 74
     4
  7
monochrome.ctb
 75
     0
 76
     0
 77
     2
 78
   300
147
0.7867653566
148
-61.602258146417
149
-428.978713273163
100
AcDbLayout
  1
Model
 70
     1
 71
     0
 10
0.0
 20
0.0
 11
12.0
 21
9.0
 12
0.0
 22
0.0
 32
0.0
 14
-98.124081040964
 24
164.096143649624
 34
0.0
 15
321.241120621153
 25
406.086943342896
 35
0.0
146
0.0
 13
0.0
 23
0.0
 33
0.0
 16
1.0
 26
0.0
 36
0.0
 17
0.0
 27
1.0
 37
0.0
 76
     0
330
18
331
14043
  0
LAYOUT
  5
3566
102
{ACAD_REACTORS
330
3563
102
}
330
3563
100
AcDbPlotSettings
  1

  2
RICOH IPSiO CX6600 RPCS
  4
A3
  6

 40
3.174999952316
 41
3.174999952316
 42
3.174987792969
 43
3.174987792969
 44
297.0
 45
420.0
 46
0.0
 47
0.0
 48
0.0
 49
0.0
140
0.0
141
0.0
142
1.0
143
1.0
 70
   688
 72
     1
 73
     1
 74
     5
  7
monochrome.ctb
 75
    16
 76
     0
 77
     2
 78
   300
147
1.0
148
0.0
149
0.0
100
AcDbLayout
  1
ﾚｲｱｳﾄ1
 70
     1
 71
     1
 10
-3.174987792969
 20
-3.174999952316
 11
416.825012207031
 21
293.825000047684
 12
0.0
 22
0.0
 32
0.0
 14
41.365001225471
 24
29.065001225472
 34
0.0
 15
372.285011029243
 25
261.585011029243
 35
0.0
146
0.0
 13
0.0
 23
0.0
 33
0.0
 16
1.0
 26
0.0
 36
0.0
 17
0.0
 27
1.0
 37
0.0
 76
     0
330
15
331
AE15
  0
MATERIAL
  5
14081
102
{ACAD_REACTORS
330
1407F
102
}
330
1407F
100
AcDbMaterial
  1
ByBlock
 72
     1
 94
      127
  0
MATERIAL
  5
14080
102
{ACAD_REACTORS
330
1407F
102
}
330
1407F
100
AcDbMaterial
  1
ByLayer
 72
     1
 94
      127
  0
MATERIAL
  5
14082
102
{ACAD_REACTORS
330
1407F
102
}
330
1407F
100
AcDbMaterial
  1
Global
 72
     1
 94
      127
  0
MLEADERSTYLE
  5
14086
102
{ACAD_REACTORS
330
14085
102
}
330
14085
100
AcDbMLeaderStyle
179
     2
170
     2
171
     1
172
     0
 90
        2
 40
0.0
 41
0.0
173
     1
 91
-1056964608
340
12
 92
       -2
290
     1
 42
2.0
291
     1
 43
8.0
  3
Standard
341
0
 44
4.0
300

342
10
174
     1
178
     6
175
     1
176
     0
 93
-1056964608
 45
4.0
292
     0
297
     0
 46
4.0
343
0
 94
-1056964608
 47
1.0
 49
1.0
140
1.0
293
     1
141
0.0
294
     1
177
     0
142
1.0
295
     0
296
     0
143
3.75
271
     0
272
     9
273
     9
298
     0
  0
MLINESTYLE
  5
1B
102
{ACAD_REACTORS
330
E
102
}
330
E
100
AcDbMlineStyle
  2
STANDARD
 70
     0
  3

 62
     0
 51
90.0
 52
90.0
 71
     2
 49
0.5
 62
   256
  6
BYLAYER
 49
-0.5
 62
   256
  6
BYLAYER
  0
ACDBPLACEHOLDER
  5
3562
102
{ACAD_REACTORS
330
3561
102
}
330
3561
  0
SCALE
  5
1405E
102
{ACAD_REACTORS
330
1405D
102
}
330
1405D
100
AcDbScale
 70
     0
300
1:1
140
1.0
141
1.0
290
     1
  0
SCALE
  5
1405F
102
{ACAD_REACTORS
330
1405D
102
}
330
1405D
100
AcDbScale
 70
     0
300
1:2
140
1.0
141
2.0
290
     0
  0
SCALE
  5
14060
102
{ACAD_REACTORS
330
1405D
102
}
330
1405D
100
AcDbScale
 70
     0
300
1:4
140
1.0
141
4.0
290
     0
  0
SCALE
  5
14061
102
{ACAD_REACTORS
330
1405D
102
}
330
1405D
100
AcDbScale
 70
     0
300
1:5
140
1.0
141
5.0
290
     0
  0
SCALE
  5
14062
102
{ACAD_REACTORS
330
1405D
102
}
330
1405D
100
AcDbScale
 70
     0
300
1:8
140
1.0
141
8.0
290
     0
  0
SCALE
  5
14063
102
{ACAD_REACTORS
330
1405D
102
}
330
1405D
100
AcDbScale
 70
     0
300
1:10
140
1.0
141
10.0
290
     0
  0
SCALE
  5
14064
102
{ACAD_REACTORS
330
1405D
102
}
330
1405D
100
AcDbScale
 70
     0
300
1:16
140
1.0
141
16.0
290
     0
  0
SCALE
  5
14065
102
{ACAD_REACTORS
330
1405D
102
}
330
1405D
100
AcDbScale
 70
     0
300
1:20
140
1.0
141
20.0
290
     0
  0
SCALE
  5
14066
102
{ACAD_REACTORS
330
1405D
102
}
330
1405D
100
AcDbScale
 70
     0
300
1:30
140
1.0
141
30.0
290
     0
  0
SCALE
  5
14067
102
{ACAD_REACTORS
330
1405D
102
}
330
1405D
100
AcDbScale
 70
     0
300
1:40
140
1.0
141
40.0
290
     0
  0
SCALE
  5
14068
102
{ACAD_REACTORS
330
1405D
102
}
330
1405D
100
AcDbScale
 70
     0
300
1:50
140
1.0
141
50.0
290
     0
  0
SCALE
  5
14069
102
{ACAD_REACTORS
330
1405D
102
}
330
1405D
100
AcDbScale
 70
     0
300
1:100
140
1.0
141
100.0
290
     0
  0
SCALE
  5
1406A
102
{ACAD_REACTORS
330
1405D
102
}
330
1405D
100
AcDbScale
 70
     0
300
2:1
140
2.0
141
1.0
290
     0
  0
SCALE
  5
1406B
102
{ACAD_REACTORS
330
1405D
102
}
330
1405D
100
AcDbScale
 70
     0
300
4:1
140
4.0
141
1.0
290
     0
  0
SCALE
  5
1406C
102
{ACAD_REACTORS
330
1405D
102
}
330
1405D
100
AcDbScale
 70
     0
300
8:1
140
8.0
141
1.0
290
     0
  0
SCALE
  5
1406D
102
{ACAD_REACTORS
330
1405D
102
}
330
1405D
100
AcDbScale
 70
     0
300
10:1
140
10.0
141
1.0
290
     0
  0
SCALE
  5
1406E
102
{ACAD_REACTORS
330
1405D
102
}
330
1405D
100
AcDbScale
 70
     0
300
100:1
140
100.0
141
1.0
290
     0
  0
SCALE
  5
1406F
102
{ACAD_REACTORS
330
1405D
102
}
330
1405D
100
AcDbScale
 70
     0
300
1/128" = 1'-0"
140
0.0078125
141
12.0
290
     0
  0
SCALE
  5
14070
102
{ACAD_REACTORS
330
1405D
102
}
330
1405D
100
AcDbScale
 70
     0
300
1/64" = 1'-0"
140
0.015625
141
12.0
290
     0
  0
SCALE
  5
14071
102
{ACAD_REACTORS
330
1405D
102
}
330
1405D
100
AcDbScale
 70
     0
300
1/32" = 1'-0"
140
0.03125
141
12.0
290
     0
  0
SCALE
  5
14072
102
{ACAD_REACTORS
330
1405D
102
}
330
1405D
100
AcDbScale
 70
     0
300
1/16" = 1'-0"
140
0.0625
141
12.0
290
     0
  0
SCALE
  5
14073
102
{ACAD_REACTORS
330
1405D
102
}
330
1405D
100
AcDbScale
 70
     0
300
3/32" = 1'-0"
140
0.09375
141
12.0
290
     0
  0
SCALE
  5
14074
102
{ACAD_REACTORS
330
1405D
102
}
330
1405D
100
AcDbScale
 70
     0
300
1/8" = 1'-0"
140
0.125
141
12.0
290
     0
  0
SCALE
  5
14075
102
{ACAD_REACTORS
330
1405D
102
}
330
1405D
100
AcDbScale
 70
     0
300
3/16" = 1'-0"
140
0.1875
141
12.0
290
     0
  0
SCALE
  5
14076
102
{ACAD_REACTORS
330
1405D
102
}
330
1405D
100
AcDbScale
 70
     0
300
1/4" = 1'-0"
140
0.25
141
12.0
290
     0
  0
SCALE
  5
14077
102
{ACAD_REACTORS
330
1405D
102
}
330
1405D
100
AcDbScale
 70
     0
300
3/8" = 1'-0"
140
0.375
141
12.0
290
     0
  0
SCALE
  5
14078
102
{ACAD_REACTORS
330
1405D
102
}
330
1405D
100
AcDbScale
 70
     0
300
1/2" = 1'-0"
140
0.5
141
12.0
290
     0
  0
SCALE
  5
14079
102
{ACAD_REACTORS
330
1405D
102
}
330
1405D
100
AcDbScale
 70
     0
300
3/4" = 1'-0"
140
0.75
141
12.0
290
     0
  0
SCALE
  5
1407A
102
{ACAD_REACTORS
330
1405D
102
}
330
1405D
100
AcDbScale
 70
     0
300
1" = 1'-0"
140
1.0
141
12.0
290
     0
  0
SCALE
  5
1407B
102
{ACAD_REACTORS
330
1405D
102
}
330
1405D
100
AcDbScale
 70
     0
300
1-1/2" = 1'-0"
140
1.5
141
12.0
290
     0
  0
SCALE
  5
1407C
102
{ACAD_REACTORS
330
1405D
102
}
330
1405D
100
AcDbScale
 70
     0
300
3" = 1'-0"
140
3.0
141
12.0
290
     0
  0
SCALE
  5
1407D
102
{ACAD_REACTORS
330
1405D
102
}
330
1405D
100
AcDbScale
 70
     0
300
6" = 1'-0"
140
6.0
141
12.0
290
     0
  0
SCALE
  5
1407E
102
{ACAD_REACTORS
330
1405D
102
}
330
1405D
100
AcDbScale
 70
     0
300
1'-0" = 1'-0"
140
12.0
141
12.0
290
     0
  0
TABLESTYLE
  5
14084
102
{ACAD_REACTORS
330
14083
102
}
102
{ACAD_XDICTIONARY
360
149C5
102
}
330
14083
100
AcDbTableStyle
  3
Standard
 70
     0
 71
     0
 40
1.5
 41
1.5
280
     0
281
     0
  7
STANDARD
140
4.5
170
     2
 62
     0
 63
   257
283
     0
 90
        4
 91
        0
  1

274
    -2
284
     1
 64
     0
275
    -2
285
     1
 65
     0
276
    -2
286
     1
 66
     0
277
    -2
287
     1
 67
     0
278
    -2
288
     1
 68
     0
279
    -2
289
     1
 69
     0
  7
STANDARD
140
6.0
170
     5
 62
     0
 63
   257
283
     0
 90
        4
 91
        0
  1

274
    -2
284
     1
 64
     0
275
    -2
285
     1
 65
     0
276
    -2
286
     1
 66
     0
277
    -2
287
     1
 67
     0
278
    -2
288
     1
 68
     0
279
    -2
289
     1
 69
     0
  7
STANDARD
140
4.5
170
     5
 62
     0
 63
   257
283
     0
 90
        4
 91
        0
  1

274
    -2
284
     1
 64
     0
275
    -2
285
     1
 65
     0
276
    -2
286
     1
 66
     0
277
    -2
287
     1
 67
     0
278
    -2
288
     1
 68
     0
279
    -2
289
     1
 69
     0
  0
VISUALSTYLE
  5
14049
102
{ACAD_REACTORS
330
14044
102
}
330
14044
100
AcDbVisualStyle
  2
2dWireframe
 70
     4
177
     3
291
     0
 70
    58
 90
        0
176
     1
 90
        2
176
     1
 90
        0
176
     1
 90
        0
176
     1
 40
0.6
176
     1
 40
30.0
176
     1
 62
     7
176
     1
 90
        1
176
     1
 90
        4
176
     1
 62
     7
176
     1
 62
   257
176
     1
 90
        1
176
     1
 90
        1
176
     1
 40
1.0
176
     1
 90
        0
176
     1
 62
   257
176
     1
 40
1.0
176
     1
 90
        1
176
     1
 90
        6
176
     1
 90
        2
176
     1
 62
     7
176
     1
 90
        5
176
     1
 90
        0
176
     1
 90
        0
176
     1
290
     0
176
     1
 90
        1
176
     1
 40
0.0
176
     1
 90
        0
176
     1
290
     1
176
     1
290
     1
176
     1
290
     0
176
     1
290
     0
176
     1
290
     0
176
     1
290
     0
176
     1
290
     0
176
     1
290
     0
176
     1
290
     0
176
     1
 90
       50
176
     1
 40
0.0
176
     1
 40
1.0
176
     1
 90
        0
176
     1
 62
    18
420
        0
176
     1
 90
       50
176
     1
 90
        3
176
     1
 62
     5
420
      255
176
     1
290
     0
176
     1
 90
       50
176
     1
 90
       50
176
     1
 90
       50
176
     1
290
     0
176
     1
 90
       50
176
     1
 62
   256
176
     0
 40
1.0
176
     0
 90
        2
176
     1
  1
strokes_ogs.tif
176
     1
290
     0
176
     1
 40
1.0
176
     1
 40
1.0
176
     1
  0
VISUALSTYLE
  5
1404C
102
{ACAD_REACTORS
330
14044
102
}
330
14044
100
AcDbVisualStyle
  2
Basic
 70
     7
177
     3
291
     1
 70
    58
 90
        1
176
     1
 90
        0
176
     1
 90
        1
176
     1
 90
        0
176
     1
 40
0.6
176
     1
 40
30.0
176
     1
 62
     7
176
     1
 90
        0
176
     1
 90
        4
176
     1
 62
     7
176
     1
 62
   257
176
     1
 90
        1
176
     1
 90
        1
176
     1
 40
1.0
176
     1
 90
        8
176
     1
 62
     7
176
     1
 40
1.0
176
     1
 90
        1
176
     1
 90
        6
176
     1
 90
        2
176
     1
 62
     7
176
     1
 90
        5
176
     1
 90
        0
176
     1
 90
        0
176
     1
290
     0
176
     1
 90
        1
176
     1
 40
0.0
176
     1
 90
        0
176
     1
290
     0
176
     1
290
     1
176
     1
290
     1
176
     1
290
     0
176
     1
290
     0
176
     1
290
     0
176
     1
290
     0
176
     1
290
     0
176
     1
290
     0
176
     1
 90
       50
176
     1
 40
0.0
176
     1
 40
1.0
176
     1
 90
        0
176
     1
 62
    18
420
        0
176
     1
 90
       50
176
     1
 90
        3
176
     1
 62
     5
420
      255
176
     1
290
     0
176
     1
 90
       50
176
     1
 90
       50
176
     1
 90
       50
176
     1
290
     0
176
     1
 90
       50
176
     1
 62
   256
176
     0
 40
1.0
176
     0
 90
        2
176
     1
  1
strokes_ogs.tif
176
     1
290
     0
176
     1
 40
1.0
176
     1
 40
1.0
176
     1
  0
VISUALSTYLE
  5
14050
102
{ACAD_REACTORS
330
14044
102
}
330
14044
100
AcDbVisualStyle
  2
Brighten
 70
    12
177
     3
291
     1
 70
    58
 90
        2
176
     1
 90
        2
176
     1
 90
        0
176
     1
 90
        0
176
     1
 40
0.6
176
     1
 40
30.0
176
     1
 62
     7
176
     1
 90
        1
176
     1
 90
        4
176
     1
 62
     7
176
     1
 62
   257
176
     1
 90
        1
176
     1
 90
        1
176
     1
 40
1.0
176
     1
 90
        8
176
     1
 62
     7
176
     1
 40
1.0
176
     1
 90
        1
176
     1
 90
        6
176
     1
 90
        2
176
     1
 62
     7
176
     1
 90
        5
176
     1
 90
        0
176
     1
 90
        0
176
     1
290
     0
176
     1
 90
        1
176
     1
 40
50.0
176
     1
 90
        0
176
     1
290
     0
176
     1
290
     1
176
     1
290
     1
176
     1
290
     0
176
     1
290
     0
176
     1
290
     0
176
     1
290
     0
176
     1
290
     0
176
     1
290
     0
176
     1
 90
       50
176
     1
 40
0.0
176
     1
 40
1.0
176
     1
 90
        0
176
     1
 62
    18
420
        0
176
     1
 90
       50
176
     1
 90
        3
176
     1
 62
     5
420
      255
176
     1
290
     0
176
     1
 90
       50
176
     1
 90
       50
176
     1
 90
       50
176
     1
290
     0
176
     1
 90
       50
176
     1
 62
   256
176
     0
 40
1.0
176
     0
 90
        2
176
     1
  1
strokes_ogs.tif
176
     1
290
     0
176
     1
 40
1.0
176
     1
 40
1.0
176
     1
  0
VISUALSTYLE
  5
14054
102
{ACAD_REACTORS
330
14044
102
}
330
14044
100
AcDbVisualStyle
  2
ColorChange
 70
    16
177
     3
291
     1
 70
    58
 90
        2
176
     1
 90
        2
176
     1
 90
        3
176
     1
 90
        0
176
     1
 40
0.6
176
     1
 40
30.0
176
     1
 62
     8
176
     1
 90
        1
176
     1
 90
        4
176
     1
 62
     7
176
     1
 62
   257
176
     1
 90
        1
176
     1
 90
        1
176
     1
 40
1.0
176
     1
 90
        8
176
     1
 62
     8
176
     1
 40
1.0
176
     1
 90
        1
176
     1
 90
        6
176
     1
 90
        2
176
     1
 62
     7
176
     1
 90
        5
176
     1
 90
        0
176
     1
 90
        0
176
     1
290
     0
176
     1
 90
        1
176
     1
 40
0.0
176
     1
 90
        0
176
     1
290
     0
176
     1
290
     1
176
     1
290
     1
176
     1
290
     0
176
     1
290
     0
176
     1
290
     0
176
     1
290
     0
176
     1
290
     0
176
     1
290
     0
176
     1
 90
       50
176
     1
 40
0.0
176
     1
 40
1.0
176
     1
 90
        0
176
     1
 62
    18
420
        0
176
     1
 90
       50
176
     1
 90
        3
176
     1
 62
     5
420
      255
176
     1
290
     0
176
     1
 90
       50
176
     1
 90
       50
176
     1
 90
       50
176
     1
290
     0
176
     1
 90
       50
176
     1
 62
   256
176
     0
 40
1.0
176
     0
 90
        2
176
     1
  1
strokes_ogs.tif
176
     1
290
     0
176
     1
 40
1.0
176
     1
 40
1.0
176
     1
  0
VISUALSTYLE
  5
1404E
102
{ACAD_REACTORS
330
14044
102
}
330
14044
100
AcDbVisualStyle
  2
Conceptual
 70
     9
177
     3
291
     0
 70
    58
 90
        3
176
     1
 90
        2
176
     1
 90
        0
176
     1
 90
        0
176
     1
 40
0.6
176
     1
 40
30.0
176
     1
 62
     7
176
     1
 90
        2
176
     1
 90
        2
176
     1
 62
     7
176
     1
 62
   257
176
     1
 90
        1
176
     1
 90
        1
176
     1
 40
179.0
176
     1
 90
        8
176
     1
 62
     7
176
     1
 40
1.0
176
     1
 90
        1
176
     1
 90
        6
176
     1
 90
        2
176
     1
 62
     7
176
     1
 90
        3
176
     1
 90
        0
176
     1
 90
        0
176
     1
290
     0
176
     1
 90
        1
176
     1
 40
0.0
176
     1
 90
        0
176
     1
290
     0
176
     1
290
     1
176
     1
290
     1
176
     1
290
     0
176
     1
290
     0
176
     1
290
     0
176
     1
290
     0
176
     1
290
     0
176
     1
290
     0
176
     1
 90
       50
176
     1
 40
0.0
176
     1
 40
1.0
176
     1
 90
        0
176
     1
 62
    18
420
        0
176
     1
 90
       50
176
     1
 90
        3
176
     1
 62
     5
420
      255
176
     1
290
     0
176
     1
 90
       50
176
     1
 90
       50
176
     1
 90
       50
176
     1
290
     0
176
     1
 90
       50
176
     1
 62
   256
176
     0
 40
1.0
176
     0
 90
        2
176
     1
  1
strokes_ogs.tif
176
     1
290
     0
176
     1
 40
1.0
176
     1
 40
1.0
176
     1
  0
VISUALSTYLE
  5
1404F
102
{ACAD_REACTORS
330
14044
102
}
330
14044
100
AcDbVisualStyle
  2
Dim
 70
    11
177
     3
291
     1
 70
    58
 90
        2
176
     1
 90
        2
176
     1
 90
        0
176
     1
 90
        0
176
     1
 40
0.6
176
     1
 40
30.0
176
     1
 62
     7
176
     1
 90
        1
176
     1
 90
        4
176
     1
 62
     7
176
     1
 62
   257
176
     1
 90
        1
176
     1
 90
        1
176
     1
 40
1.0
176
     1
 90
        8
176
     1
 62
     7
176
     1
 40
1.0
176
     1
 90
        1
176
     1
 90
        6
176
     1
 90
        2
176
     1
 62
     7
176
     1
 90
        5
176
     1
 90
        0
176
     1
 90
        0
176
     1
290
     0
176
     1
 90
        1
176
     1
 40
-50.0
176
     1
 90
        0
176
     1
290
     0
176
     1
290
     1
176
     1
290
     1
176
     1
290
     0
176
     1
290
     0
176
     1
290
     0
176
     1
290
     0
176
     1
290
     0
176
     1
290
     0
176
     1
 90
       50
176
     1
 40
0.0
176
     1
 40
1.0
176
     1
 90
        0
176
     1
 62
    18
420
        0
176
     1
 90
       50
176
     1
 90
        3
176
     1
 62
     5
420
      255
176
     1
290
     0
176
     1
 90
       50
176
     1
 90
       50
176
     1
 90
       50
176
     1
290
     0
176
     1
 90
       50
176
     1
 62
   256
176
     0
 40
1.0
176
     0
 90
        2
176
     1
  1
strokes_ogs.tif
176
     1
290
     0
176
     1
 40
1.0
176
     1
 40
1.0
176
     1
  0
VISUALSTYLE
  5
14057
102
{ACAD_REACTORS
330
14044
102
}
330
14044
100
AcDbVisualStyle
  2
EdgeColorOff
 70
    22
177
     3
291
     1
 70
    58
 90
        2
176
     1
 90
        2
176
     1
 90
        0
176
     1
 90
        0
176
     1
 40
0.6
176
     1
 40
30.0
176
     1
 62
     7
176
     1
 90
        1
176
     1
 90
        4
176
     1
 62
     7
176
     1
 62
   257
176
     1
 90
        1
176
     1
 90
        1
176
     1
 40
1.0
176
     1
 90
        8
176
     1
 62
     7
176
     1
 40
1.0
176
     1
 90
        1
176
     1
 90
        6
176
     1
 90
        2
176
     1
 62
     7
176
     1
 90
        5
176
     1
 90
        0
176
     1
 90
        0
176
     1
290
     0
176
     1
 90
        1
176
     1
 40
0.0
176
     1
 90
        0
176
     1
290
     0
176
     1
290
     1
176
     1
290
     1
176
     1
290
     0
176
     1
290
     0
176
     1
290
     0
176
     1
290
     0
176
     1
290
     0
176
     1
290
     0
176
     1
 90
       50
176
     1
 40
0.0
176
     1
 40
1.0
176
     1
 90
        0
176
     1
 62
    18
420
        0
176
     1
 90
       50
176
     1
 90
        3
176
     1
 62
     5
420
      255
176
     1
290
     0
176
     1
 90
       50
176
     1
 90
       50
176
     1
 90
       50
176
     1
290
     0
176
     1
 90
       50
176
     1
 62
   256
176
     0
 40
1.0
176
     0
 90
        2
176
     1
  1
strokes_ogs.tif
176
     1
290
     0
176
     1
 40
1.0
176
     1
 40
1.0
176
     1
  0
VISUALSTYLE
  5
14053
102
{ACAD_REACTORS
330
14044
102
}
330
14044
100
AcDbVisualStyle
  2
Facepattern
 70
    15
177
     3
291
     1
 70
    58
 90
        2
176
     1
 90
        2
176
     1
 90
        0
176
     1
 90
        0
176
     1
 40
0.6
176
     1
 40
30.0
176
     1
 62
     7
176
     1
 90
        1
176
     1
 90
        4
176
     1
 62
     7
176
     1
 62
   257
176
     1
 90
        1
176
     1
 90
        1
176
     1
 40
1.0
176
     1
 90
        8
176
     1
 62
     7
176
     1
 40
1.0
176
     1
 90
        1
176
     1
 90
        6
176
     1
 90
        2
176
     1
 62
     7
176
     1
 90
        5
176
     1
 90
        0
176
     1
 90
        0
176
     1
290
     0
176
     1
 90
        1
176
     1
 40
0.0
176
     1
 90
        0
176
     1
290
     0
176
     1
290
     1
176
     1
290
     1
176
     1
290
     0
176
     1
290
     0
176
     1
290
     0
176
     1
290
     0
176
     1
290
     0
176
     1
290
     0
176
     1
 90
       50
176
     1
 40
0.0
176
     1
 40
1.0
176
     1
 90
        0
176
     1
 62
    18
420
        0
176
     1
 90
       50
176
     1
 90
        3
176
     1
 62
     5
420
      255
176
     1
290
     0
176
     1
 90
       50
176
     1
 90
       50
176
     1
 90
       50
176
     1
290
     0
176
     1
 90
       50
176
     1
 62
   256
176
     0
 40
1.0
176
     0
 90
        2
176
     1
  1
strokes_ogs.tif
176
     1
290
     0
176
     1
 40
1.0
176
     1
 40
1.0
176
     1
  0
VISUALSTYLE
  5
14045
102
{ACAD_REACTORS
330
14044
102
}
330
14044
100
AcDbVisualStyle
  2
Flat
 70
     0
177
     3
291
     1
 70
    58
 90
        2
176
     1
 90
        1
176
     1
 90
        1
176
     1
 90
        2
176
     1
 40
0.6
176
     1
 40
30.0
176
     1
 62
     7
176
     1
 90
        0
176
     1
 90
        0
176
     1
 62
     7
176
     1
 62
   257
176
     1
 90
        1
176
     1
 90
        1
176
     1
 40
1.0
176
     1
 90
        8
176
     1
 62
     7
176
     1
 40
1.0
176
     1
 90
        1
176
     1
 90
        6
176
     1
 90
        2
176
     1
 62
     7
176
     1
 90
        5
176
     1
 90
        0
176
     1
 90
        0
176
     1
290
     0
176
     1
 90
       13
176
     1
 40
0.0
176
     1
 90
        0
176
     1
290
     0
176
     1
290
     1
176
     1
290
     1
176
     1
290
     0
176
     1
290
     0
176
     1
290
     0
176
     1
290
     0
176
     1
290
     0
176
     1
290
     0
176
     1
 90
       50
176
     1
 40
0.0
176
     1
 40
1.0
176
     1
 90
        0
176
     1
 62
    18
420
        0
176
     1
 90
       50
176
     1
 90
        3
176
     1
 62
     5
420
      255
176
     1
290
     0
176
     1
 90
       50
176
     1
 90
       50
176
     1
 90
       50
176
     1
290
     0
176
     1
 90
       50
176
     1
 62
   256
176
     0
 40
1.0
176
     0
 90
        2
176
     1
  1
strokes_ogs.tif
176
     1
290
     0
176
     1
 40
1.0
176
     1
 40
1.0
176
     1
  0
VISUALSTYLE
  5
14046
102
{ACAD_REACTORS
330
14044
102
}
330
14044
100
AcDbVisualStyle
  2
FlatWithEdges
 70
     1
177
     3
291
     1
 70
    58
 90
        2
176
     1
 90
        1
176
     1
 90
        1
176
     1
 90
        2
176
     1
 40
0.6
176
     1
 40
30.0
176
     1
 62
     7
176
     1
 90
        1
176
     1
 90
        0
176
     1
 62
     7
176
     1
 62
   257
176
     1
 90
        1
176
     1
 90
        1
176
     1
 40
1.0
176
     1
 90
        0
176
     1
 62
   257
176
     1
 40
1.0
176
     1
 90
        1
176
     1
 90
        6
176
     1
 90
        2
176
     1
 62
     7
176
     1
 90
        5
176
     1
 90
        0
176
     1
 90
        0
176
     1
290
     0
176
     1
 90
       13
176
     1
 40
0.0
176
     1
 90
        0
176
     1
290
     0
176
     1
290
     1
176
     1
290
     1
176
     1
290
     0
176
     1
290
     0
176
     1
290
     0
176
     1
290
     0
176
     1
290
     0
176
     1
290
     0
176
     1
 90
       50
176
     1
 40
0.0
176
     1
 40
1.0
176
     1
 90
        0
176
     1
 62
    18
420
        0
176
     1
 90
       50
176
     1
 90
        3
176
     1
 62
     5
420
      255
176
     1
290
     0
176
     1
 90
       50
176
     1
 90
       50
176
     1
 90
       50
176
     1
290
     0
176
     1
 90
       50
176
     1
 62
   256
176
     0
 40
1.0
176
     0
 90
        2
176
     1
  1
strokes_ogs.tif
176
     1
290
     0
176
     1
 40
1.0
176
     1
 40
1.0
176
     1
  0
VISUALSTYLE
  5
14047
102
{ACAD_REACTORS
330
14044
102
}
330
14044
100
AcDbVisualStyle
  2
Gouraud
 70
     2
177
     3
291
     1
 70
    58
 90
        2
176
     1
 90
        2
176
     1
 90
        1
176
     1
 90
        2
176
     1
 40
0.6
176
     1
 40
30.0
176
     1
 62
     7
176
     1
 90
        0
176
     1
 90
        0
176
     1
 62
     7
176
     1
 62
   257
176
     1
 90
        1
176
     1
 90
        1
176
     1
 40
1.0
176
     1
 90
        0
176
     1
 62
     7
176
     1
 40
1.0
176
     1
 90
        1
176
     1
 90
        6
176
     1
 90
        2
176
     1
 62
     7
176
     1
 90
        5
176
     1
 90
        0
176
     1
 90
        0
176
     1
290
     0
176
     1
 90
       13
176
     1
 40
0.0
176
     1
 90
        0
176
     1
290
     0
176
     1
290
     1
176
     1
290
     1
176
     1
290
     0
176
     1
290
     0
176
     1
290
     0
176
     1
290
     0
176
     1
290
     0
176
     1
290
     0
176
     1
 90
       50
176
     1
 40
0.0
176
     1
 40
1.0
176
     1
 90
        0
176
     1
 62
    18
420
        0
176
     1
 90
       50
176
     1
 90
        3
176
     1
 62
     5
420
      255
176
     1
290
     0
176
     1
 90
       50
176
     1
 90
       50
176
     1
 90
       50
176
     1
290
     0
176
     1
 90
       50
176
     1
 62
   256
176
     0
 40
1.0
176
     0
 90
        2
176
     1
  1
strokes_ogs.tif
176
     1
290
     0
176
     1
 40
1.0
176
     1
 40
1.0
176
     1
  0
VISUALSTYLE
  5
14048
102
{ACAD_REACTORS
330
14044
102
}
330
14044
100
AcDbVisualStyle
  2
GouraudWithEdges
 70
     3
177
     3
291
     1
 70
    58
 90
        2
176
     1
 90
        2
176
     1
 90
        1
176
     1
 90
        2
176
     1
 40
0.6
176
     1
 40
30.0
176
     1
 62
     7
176
     1
 90
        1
176
     1
 90
        0
176
     1
 62
     7
176
     1
 62
   257
176
     1
 90
        1
176
     1
 90
        1
176
     1
 40
1.0
176
     1
 90
        0
176
     1
 62
   257
176
     1
 40
1.0
176
     1
 90
        1
176
     1
 90
        6
176
     1
 90
        2
176
     1
 62
     7
176
     1
 90
        5
176
     1
 90
        0
176
     1
 90
        0
176
     1
290
     0
176
     1
 90
       13
176
     1
 40
0.0
176
     1
 90
        0
176
     1
290
     0
176
     1
290
     1
176
     1
290
     1
176
     1
290
     0
176
     1
290
     0
176
     1
290
     0
176
     1
290
     0
176
     1
290
     0
176
     1
290
     0
176
     1
 90
       50
176
     1
 40
0.0
176
     1
 40
1.0
176
     1
 90
        0
176
     1
 62
    18
420
        0
176
     1
 90
       50
176
     1
 90
        3
176
     1
 62
     5
420
      255
176
     1
290
     0
176
     1
 90
       50
176
     1
 90
       50
176
     1
 90
       50
176
     1
290
     0
176
     1
 90
       50
176
     1
 62
   256
176
     0
 40
1.0
176
     0
 90
        2
176
     1
  1
strokes_ogs.tif
176
     1
290
     0
176
     1
 40
1.0
176
     1
 40
1.0
176
     1
  0
VISUALSTYLE
  5
1404B
102
{ACAD_REACTORS
330
14044
102
}
330
14044
100
AcDbVisualStyle
  2
Hidden
 70
     6
177
     3
291
     0
 70
    58
 90
        1
176
     1
 90
        2
176
     1
 90
        2
176
     1
 90
        0
176
     1
 40
0.6
176
     1
 40
30.0
176
     1
 62
     7
176
     1
 90
        2
176
     1
 90
        2
176
     1
 62
     7
176
     1
 62
   257
176
     1
 90
        2
176
     1
 90
        1
176
     1
 40
40.0
176
     1
 90
        0
176
     1
 62
   257
176
     1
 40
1.0
176
     1
 90
        1
176
     1
 90
        6
176
     1
 90
        2
176
     1
 62
     7
176
     1
 90
        3
176
     1
 90
        0
176
     1
 90
        0
176
     1
290
     0
176
     1
 90
        1
176
     1
 40
0.0
176
     1
 90
        0
176
     1
290
     0
176
     1
290
     1
176
     1
290
     1
176
     1
290
     0
176
     1
290
     0
176
     1
290
     0
176
     1
290
     0
176
     1
290
     0
176
     1
290
     0
176
     1
 90
       50
176
     1
 40
0.0
176
     1
 40
1.0
176
     1
 90
        0
176
     1
 62
    18
420
        0
176
     1
 90
       50
176
     1
 90
        3
176
     1
 62
     5
420
      255
176
     1
290
     0
176
     1
 90
       50
176
     1
 90
       50
176
     1
 90
       50
176
     1
290
     0
176
     1
 90
       50
176
     1
 62
   256
176
     0
 40
1.0
176
     0
 90
        2
176
     1
  1
strokes_ogs.tif
176
     1
290
     0
176
     1
 40
1.0
176
     1
 40
1.0
176
     1
  0
VISUALSTYLE
  5
14055
102
{ACAD_REACTORS
330
14044
102
}
330
14044
100
AcDbVisualStyle
  2
JitterOff
 70
    20
177
     3
291
     1
 70
    58
 90
        2
176
     1
 90
        2
176
     1
 90
        0
176
     1
 90
        0
176
     1
 40
0.6
176
     1
 40
30.0
176
     1
 62
     7
176
     1
 90
        1
176
     1
 90
        4
176
     1
 62
     7
176
     1
 62
   257
176
     1
 90
        1
176
     1
 90
        1
176
     1
 40
1.0
176
     1
 90
       10
176
     1
 62
     7
176
     1
 40
1.0
176
     1
 90
        1
176
     1
 90
        6
176
     1
 90
        2
176
     1
 62
     7
176
     1
 90
        5
176
     1
 90
        0
176
     1
 90
        0
176
     1
290
     0
176
     1
 90
        1
176
     1
 40
0.0
176
     1
 90
        0
176
     1
290
     0
176
     1
290
     1
176
     1
290
     1
176
     1
290
     0
176
     1
290
     0
176
     1
290
     0
176
     1
290
     0
176
     1
290
     0
176
     1
290
     0
176
     1
 90
       50
176
     1
 40
0.0
176
     1
 40
1.0
176
     1
 90
        0
176
     1
 62
    18
420
        0
176
     1
 90
       50
176
     1
 90
        3
176
     1
 62
     5
420
      255
176
     1
290
     0
176
     1
 90
       50
176
     1
 90
       50
176
     1
 90
       50
176
     1
290
     0
176
     1
 90
       50
176
     1
 62
   256
176
     0
 40
1.0
176
     0
 90
        2
176
     1
  1
strokes_ogs.tif
176
     1
290
     0
176
     1
 40
1.0
176
     1
 40
1.0
176
     1
  0
VISUALSTYLE
  5
14052
102
{ACAD_REACTORS
330
14044
102
}
330
14044
100
AcDbVisualStyle
  2
Linepattern
 70
    14
177
     3
291
     1
 70
    58
 90
        2
176
     1
 90
        2
176
     1
 90
        0
176
     1
 90
        0
176
     1
 40
0.6
176
     1
 40
30.0
176
     1
 62
     7
176
     1
 90
        1
176
     1
 90
        4
176
     1
 62
     7
176
     1
 62
   257
176
     1
 90
        7
176
     1
 90
        7
176
     1
 40
1.0
176
     1
 90
        8
176
     1
 62
     7
176
     1
 40
1.0
176
     1
 90
        1
176
     1
 90
        6
176
     1
 90
        2
176
     1
 62
     7
176
     1
 90
        5
176
     1
 90
        0
176
     1
 90
        0
176
     1
290
     0
176
     1
 90
        1
176
     1
 40
0.0
176
     1
 90
        0
176
     1
290
     0
176
     1
290
     1
176
     1
290
     1
176
     1
290
     0
176
     1
290
     0
176
     1
290
     0
176
     1
290
     0
176
     1
290
     0
176
     1
290
     0
176
     1
 90
       50
176
     1
 40
0.0
176
     1
 40
1.0
176
     1
 90
        0
176
     1
 62
    18
420
        0
176
     1
 90
       50
176
     1
 90
        3
176
     1
 62
     5
420
      255
176
     1
290
     0
176
     1
 90
       50
176
     1
 90
       50
176
     1
 90
       50
176
     1
290
     0
176
     1
 90
       50
176
     1
 62
   256
176
     0
 40
1.0
176
     0
 90
        2
176
     1
  1
strokes_ogs.tif
176
     1
290
     0
176
     1
 40
1.0
176
     1
 40
1.0
176
     1
  0
VISUALSTYLE
  5
14087
102
{ACAD_REACTORS
330
14044
102
}
330
14044
100
AcDbVisualStyle
  2

 70
    10
177
     3
291
     0
 70
    58
 90
        2
176
     1
 90
        3
176
     1
 90
        0
176
     1
 90
        2
176
     1
 40
0.6
176
     1
 40
30.0
176
     1
 62
     7
176
     1
 90
        2
176
     1
 90
        0
176
     1
 62
     7
176
     1
 62
   257
176
     1
 90
        1
176
     1
 90
        1
176
     1
 40
180.0
176
     1
 90
        8
176
     1
 62
     8
176
     1
 40
1.0
176
     1
 90
        1
176
     1
 90
        6
176
     1
 90
        2
176
     1
 62
     7
176
     1
 90
        5
176
     1
 90
        0
176
     1
 90
        0
176
     1
290
     0
176
     1
 90
       13
176
     1
 40
0.0
176
     1
 90
        0
176
     1
290
     0
176
     1
290
     1
176
     1
290
     1
176
     1
290
     0
176
     1
290
     0
176
     1
290
     0
176
     1
290
     0
176
     1
290
     0
176
     1
290
     0
176
     1
 90
       50
176
     1
 40
0.0
176
     1
 40
1.0
176
     1
 90
        0
176
     1
 62
    18
420
        0
176
     1
 90
       50
176
     1
 90
        3
176
     1
 62
     5
420
      255
176
     1
290
     0
176
     1
 90
       50
176
     1
 90
       50
176
     1
 90
       50
176
     1
290
     0
176
     1
 90
       50
176
     1
 62
   256
176
     0
 40
1.0
176
     0
 90
        2
176
     1
  1
strokes_ogs.tif
176
     1
290
     0
176
     1
 40
1.0
176
     1
 40
1.0
176
     1
  0
VISUALSTYLE
  5
14056
102
{ACAD_REACTORS
330
14044
102
}
330
14044
100
AcDbVisualStyle
  2
OverhangOff
 70
    21
177
     3
291
     1
 70
    58
 90
        2
176
     1
 90
        2
176
     1
 90
        0
176
     1
 90
        0
176
     1
 40
0.6
176
     1
 40
30.0
176
     1
 62
     7
176
     1
 90
        1
176
     1
 90
        4
176
     1
 62
     7
176
     1
 62
   257
176
     1
 90
        1
176
     1
 90
        1
176
     1
 40
1.0
176
     1
 90
        9
176
     1
 62
     7
176
     1
 40
1.0
176
     1
 90
        1
176
     1
 90
        6
176
     1
 90
        2
176
     1
 62
     7
176
     1
 90
        5
176
     1
 90
        0
176
     1
 90
        0
176
     1
290
     0
176
     1
 90
        1
176
     1
 40
0.0
176
     1
 90
        0
176
     1
290
     0
176
     1
290
     1
176
     1
290
     1
176
     1
290
     0
176
     1
290
     0
176
     1
290
     0
176
     1
290
     0
176
     1
290
     0
176
     1
290
     0
176
     1
 90
       50
176
     1
 40
0.0
176
     1
 40
1.0
176
     1
 90
        0
176
     1
 62
    18
420
        0
176
     1
 90
       50
176
     1
 90
        3
176
     1
 62
     5
420
      255
176
     1
290
     0
176
     1
 90
       50
176
     1
 90
       50
176
     1
 90
       50
176
     1
290
     0
176
     1
 90
       50
176
     1
 62
   256
176
     0
 40
1.0
176
     0
 90
        2
176
     1
  1
strokes_ogs.tif
176
     1
290
     0
176
     1
 40
1.0
176
     1
 40
1.0
176
     1
  0
VISUALSTYLE
  5
1404D
102
{ACAD_REACTORS
330
14044
102
}
330
14044
100
AcDbVisualStyle
  2
Realistic
 70
     8
177
     3
291
     0
 70
    58
 90
        2
176
     1
 90
        3
176
     1
 90
        0
176
     1
 90
        2
176
     1
 40
0.6
176
     1
 40
30.0
176
     1
 62
     7
176
     1
 90
        0
176
     1
 90
        0
176
     1
 62
     7
176
     1
 62
   257
176
     1
 90
        1
176
     1
 90
        1
176
     1
 40
1.0
176
     1
 90
        8
176
     1
 62
   257
176
     1
 40
1.0
176
     1
 90
        1
176
     1
 90
        6
176
     1
 90
        2
176
     1
 62
     7
176
     1
 90
        3
176
     1
 90
        0
176
     1
 90
        0
176
     1
290
     0
176
     1
 90
       13
176
     1
 40
0.0
176
     1
 90
        0
176
     1
290
     0
176
     1
290
     1
176
     1
290
     1
176
     1
290
     0
176
     1
290
     0
176
     1
290
     0
176
     1
290
     0
176
     1
290
     0
176
     1
290
     0
176
     1
 90
       50
176
     1
 40
0.0
176
     1
 40
1.0
176
     1
 90
        0
176
     1
 62
    18
420
        0
176
     1
 90
       50
176
     1
 90
        3
176
     1
 62
     5
420
      255
176
     1
290
     0
176
     1
 90
       50
176
     1
 90
       50
176
     1
 90
       50
176
     1
290
     0
176
     1
 90
       50
176
     1
 62
   256
176
     0
 40
1.0
176
     0
 90
        2
176
     1
  1
strokes_ogs.tif
176
     1
290
     0
176
     1
 40
1.0
176
     1
 40
1.0
176
     1
  0
VISUALSTYLE
  5
1405C
102
{ACAD_REACTORS
330
14044
102
}
330
14044
100
AcDbVisualStyle
  2
Shaded
 70
    27
177
     3
291
     0
 70
    58
 90
        2
176
     1
 90
        2
176
     1
 90
        1
176
     1
 90
        2
176
     1
 40
0.6
176
     1
 40
30.0
176
     1
 62
     7
176
     1
 90
        0
176
     1
 90
        4
176
     1
 62
     7
176
     1
 62
   257
176
     1
 90
        1
176
     1
 90
        1
176
     1
 40
1.0
176
     1
 90
        8
176
     1
 62
   257
176
     1
 40
1.0
176
     1
 90
        1
176
     1
 90
        6
176
     1
 90
        2
176
     1
 62
     8
176
     1
 90
        3
176
     1
 90
        0
176
     1
 90
        0
176
     1
290
     0
176
     1
 90
        5
176
     1
 40
0.0
176
     1
 90
        0
176
     1
290
     0
176
     1
290
     1
176
     1
290
     1
176
     1
290
     0
176
     1
290
     0
176
     1
290
     0
176
     1
290
     0
176
     1
290
     0
176
     1
290
     0
176
     1
 90
       50
176
     1
 40
0.0
176
     1
 40
1.0
176
     1
 90
        0
176
     1
 62
    18
420
        0
176
     1
 90
       50
176
     1
 90
        3
176
     1
 62
     5
420
      255
176
     1
290
     0
176
     1
 90
       50
176
     1
 90
       50
176
     1
 90
       50
176
     1
290
     0
176
     1
 90
       50
176
     1
 62
   256
176
     0
 40
1.0
176
     0
 90
        2
176
     1
  1
strokes_ogs.tif
176
     1
290
     0
176
     1
 40
1.0
176
     1
 40
1.0
176
     1
  0
VISUALSTYLE
  5
1405B
102
{ACAD_REACTORS
330
14044
102
}
330
14044
100
AcDbVisualStyle
  2
Shaded with edges
 70
    26
177
     3
291
     0
 70
    58
 90
        2
176
     1
 90
        2
176
     1
 90
        1
176
     1
 90
        2
176
     1
 40
0.6
176
     1
 40
30.0
176
     1
 62
     7
176
     1
 90
        1
176
     1
 90
       10
176
     1
 62
     7
176
     1
 62
   257
176
     1
 90
        2
176
     1
 90
        1
176
     1
 40
1.0
176
     1
 90
        8
176
     1
 62
   257
176
     1
 40
1.0
176
     1
 90
        1
176
     1
 90
        6
176
     1
 90
        2
176
     1
 62
     7
176
     1
 90
        3
176
     1
 90
        0
176
     1
 90
        0
176
     1
290
     0
176
     1
 90
        5
176
     1
 40
0.0
176
     1
 90
        0
176
     1
290
     0
176
     1
290
     1
176
     1
290
     1
176
     1
290
     0
176
     1
290
     0
176
     1
290
     0
176
     1
290
     0
176
     1
290
     0
176
     1
290
     0
176
     1
 90
       50
176
     1
 40
0.0
176
     1
 40
1.0
176
     1
 90
        0
176
     1
 62
    18
420
        0
176
     1
 90
       50
176
     1
 90
        3
176
     1
 62
     5
420
      255
176
     1
290
     0
176
     1
 90
       50
176
     1
 90
       50
176
     1
 90
       50
176
     1
290
     0
176
     1
 90
       50
176
     1
 62
   256
176
     0
 40
1.0
176
     0
 90
        2
176
     1
  1
strokes_ogs.tif
176
     1
290
     0
176
     1
 40
1.0
176
     1
 40
1.0
176
     1
  0
VISUALSTYLE
  5
14058
102
{ACAD_REACTORS
330
14044
102
}
330
14044
100
AcDbVisualStyle
  2
Shades of Gray
 70
    23
177
     3
291
     0
 70
    58
 90
        2
176
     1
 90
        2
176
     1
 90
        3
176
     1
 90
        0
176
     1
 40
0.6
176
     1
 40
30.0
176
     1
 62
     7
176
     1
 90
        2
176
     1
 90
        2
176
     1
 62
     7
176
     1
 62
     7
176
     1
 90
        1
176
     1
 90
        1
176
     1
 40
40.0
176
     1
 90
        8
176
     1
 62
     7
176
     1
 40
1.0
176
     1
 90
        1
176
     1
 90
        6
176
     1
 90
        2
176
     1
 62
     7
176
     1
 90
        3
176
     1
 90
        0
176
     1
 90
        0
176
     1
290
     0
176
     1
 90
        1
176
     1
 40
0.0
176
     1
 90
        0
176
     1
290
     0
176
     1
290
     1
176
     1
290
     1
176
     1
290
     0
176
     1
290
     0
176
     1
290
     0
176
     1
290
     0
176
     1
290
     0
176
     1
290
     0
176
     1
 90
       50
176
     1
 40
0.0
176
     1
 40
1.0
176
     1
 90
        0
176
     1
 62
    18
420
        0
176
     1
 90
       50
176
     1
 90
        3
176
     1
 62
     5
420
      255
176
     1
290
     0
176
     1
 90
       50
176
     1
 90
       50
176
     1
 90
       50
176
     1
290
     0
176
     1
 90
       50
176
     1
 62
   256
176
     0
 40
1.0
176
     0
 90
        2
176
     1
  1
strokes_ogs.tif
176
     1
290
     0
176
     1
 40
1.0
176
     1
 40
1.0
176
     1
  0
VISUALSTYLE
  5
14059
102
{ACAD_REACTORS
330
14044
102
}
330
14044
100
AcDbVisualStyle
  2
Sketchy
 70
    24
177
     3
291
     0
 70
    58
 90
        1
176
     1
 90
        2
176
     1
 90
        2
176
     1
 90
        0
176
     1
 40
0.6
176
     1
 40
30.0
176
     1
 62
     7
176
     1
 90
        2
176
     1
 90
        2
176
     1
 62
     7
176
     1
 62
     7
176
     1
 90
        1
176
     1
 90
        1
176
     1
 40
40.0
176
     1
 90
       11
176
     1
 62
     7
176
     1
 40
1.0
176
     1
 90
        1
176
     1
 90
        6
176
     1
 90
        2
176
     1
 62
     7
176
     1
 90
        6
176
     1
 90
        0
176
     1
 90
        0
176
     1
290
     0
176
     1
 90
        1
176
     1
 40
0.0
176
     1
 90
        0
176
     1
290
     0
176
     1
290
     1
176
     1
290
     1
176
     1
290
     0
176
     1
290
     0
176
     1
290
     0
176
     1
290
     0
176
     1
290
     0
176
     1
290
     0
176
     1
 90
       50
176
     1
 40
0.0
176
     1
 40
1.0
176
     1
 90
        0
176
     1
 62
    18
420
        0
176
     1
 90
       50
176
     1
 90
        3
176
     1
 62
     5
420
      255
176
     1
290
     0
176
     1
 90
       50
176
     1
 90
       50
176
     1
 90
       50
176
     1
290
     0
176
     1
 90
       50
176
     1
 62
   256
176
     0
 40
1.0
176
     0
 90
        2
176
     1
  1
strokes_ogs.tif
176
     1
290
     0
176
     1
 40
1.0
176
     1
 40
1.0
176
     1
  0
VISUALSTYLE
  5
14051
102
{ACAD_REACTORS
330
14044
102
}
330
14044
100
AcDbVisualStyle
  2
Thicken
 70
    13
177
     3
291
     1
 70
    58
 90
        2
176
     1
 90
        2
176
     1
 90
        0
176
     1
 90
        0
176
     1
 40
0.6
176
     1
 40
30.0
176
     1
 62
     7
176
     1
 90
        1
176
     1
 90
        4
176
     1
 62
     7
176
     1
 62
   257
176
     1
 90
        1
176
     1
 90
        1
176
     1
 40
1.0
176
     1
 90
       12
176
     1
 62
     7
176
     1
 40
1.0
176
     1
 90
        1
176
     1
 90
        6
176
     1
 90
        2
176
     1
 62
     7
176
     1
 90
        5
176
     1
 90
        0
176
     1
 90
        0
176
     1
290
     0
176
     1
 90
        1
176
     1
 40
0.0
176
     1
 90
        0
176
     1
290
     0
176
     1
290
     1
176
     1
290
     1
176
     1
290
     0
176
     1
290
     0
176
     1
290
     0
176
     1
290
     0
176
     1
290
     0
176
     1
290
     0
176
     1
 90
       50
176
     1
 40
0.0
176
     1
 40
1.0
176
     1
 90
        0
176
     1
 62
    18
420
        0
176
     1
 90
       50
176
     1
 90
        3
176
     1
 62
     5
420
      255
176
     1
290
     0
176
     1
 90
       50
176
     1
 90
       50
176
     1
 90
       50
176
     1
290
     0
176
     1
 90
       50
176
     1
 62
   256
176
     0
 40
1.0
176
     0
 90
        2
176
     1
  1
strokes_ogs.tif
176
     1
290
     0
176
     1
 40
1.0
176
     1
 40
1.0
176
     1
  0
VISUALSTYLE
  5
1404A
102
{ACAD_REACTORS
330
14044
102
}
330
14044
100
AcDbVisualStyle
  2
Wireframe
 70
     5
177
     3
291
     0
 70
    58
 90
        0
176
     1
 90
        2
176
     1
 90
        0
176
     1
 90
        0
176
     1
 40
0.6
176
     1
 40
30.0
176
     1
 62
     7
176
     1
 90
        1
176
     1
 90
        4
176
     1
 62
     7
176
     1
 62
   257
176
     1
 90
        1
176
     1
 90
        1
176
     1
 40
1.0
176
     1
 90
        0
176
     1
 62
   257
176
     1
 40
1.0
176
     1
 90
        1
176
     1
 90
        6
176
     1
 90
        2
176
     1
 62
     7
176
     1
 90
        3
176
     1
 90
        0
176
     1
 90
        0
176
     1
290
     0
176
     1
 90
        1
176
     1
 40
0.0
176
     1
 90
        0
176
     1
290
     0
176
     1
290
     1
176
     1
290
     1
176
     1
290
     0
176
     1
290
     0
176
     1
290
     0
176
     1
290
     0
176
     1
290
     0
176
     1
290
     0
176
     1
 90
       50
176
     1
 40
0.0
176
     1
 40
1.0
176
     1
 90
        0
176
     1
 62
    18
420
        0
176
     1
 90
       50
176
     1
 90
        3
176
     1
 62
     5
420
      255
176
     1
290
     0
176
     1
 90
       50
176
     1
 90
       50
176
     1
 90
       50
176
     1
290
     0
176
     1
 90
       50
176
     1
 62
   256
176
     0
 40
1.0
176
     0
 90
        2
176
     1
  1
strokes_ogs.tif
176
     1
290
     0
176
     1
 40
1.0
176
     1
 40
1.0
176
     1
  0
VISUALSTYLE
  5
1405A
102
{ACAD_REACTORS
330
14044
102
}
330
14044
100
AcDbVisualStyle
  2
X-Ray
 70
    25
177
     3
291
     0
 70
    58
 90
        2
176
     1
 90
        2
176
     1
 90
        1
176
     1
 90
        1
176
     1
 40
0.5
176
     1
 40
30.0
176
     1
 62
     7
176
     1
 90
        1
176
     1
 90
        0
176
     1
 62
     7
176
     1
 62
   257
176
     1
 90
        1
176
     1
 90
        1
176
     1
 40
1.0
176
     1
 90
        8
176
     1
 62
     7
176
     1
 40
1.0
176
     1
 90
        1
176
     1
 90
        6
176
     1
 90
        2
176
     1
 62
     7
176
     1
 90
        3
176
     1
 90
        0
176
     1
 90
        0
176
     1
290
     0
176
     1
 90
       13
176
     1
 40
0.0
176
     1
 90
        0
176
     1
290
     0
176
     1
290
     1
176
     1
290
     1
176
     1
290
     0
176
     1
290
     0
176
     1
290
     0
176
     1
290
     0
176
     1
290
     0
176
     1
290
     0
176
     1
 90
       50
176
     1
 40
0.0
176
     1
 40
1.0
176
     1
 90
        0
176
     1
 62
    18
420
        0
176
     1
 90
       50
176
     1
 90
        3
176
     1
 62
     5
420
      255
176
     1
290
     0
176
     1
 90
       50
176
     1
 90
       50
176
     1
 90
       50
176
     1
290
     0
176
     1
 90
       50
176
     1
 62
   256
176
     0
 40
1.0
176
     0
 90
        2
176
     1
  1
strokes_ogs.tif
176
     1
290
     0
176
     1
 40
1.0
176
     1
 40
1.0
176
     1
  0
DICTIONARYVAR
  5
149BD
102
{ACAD_REACTORS
330
409E
102
}
330
409E
100
DictionaryVariables
280
     0
  1
1:1
  0
DICTIONARYVAR
  5
1408B
102
{ACAD_REACTORS
330
409E
102
}
330
409E
100
DictionaryVariables
280
     0
  1
Standard
  0
DICTIONARYVAR
  5
1408A
102
{ACAD_REACTORS
330
409E
102
}
330
409E
100
DictionaryVariables
280
     0
  1
Standard
  0
DICTIONARYVAR
  5
145A2
102
{ACAD_REACTORS
330
409E
102
}
330
409E
100
DictionaryVariables
280
     0
  1
2
  0
DICTIONARYVAR
  5
145A3
102
{ACAD_REACTORS
330
409E
102
}
330
409E
100
DictionaryVariables
280
     0
  1
1
  0
DICTIONARYVAR
  5
1408C
102
{ACAD_REACTORS
330
409E
102
}
330
409E
100
DictionaryVariables
280
     0
  1
0
  0
DICTIONARYVAR
  5
409F
102
{ACAD_REACTORS
330
409E
102
}
330
409E
100
DictionaryVariables
280
     0
  1
1
  0
XRECORD
  5
2D5B
102
{ACAD_REACTORS
330
9A4
102
}
330
9A4
100
AcDbXrecord
280
     1
  1
1.2.2
  0
DICTIONARY
  5
14244
102
{ACAD_REACTORS
330
14243
102
}
330
14243
100
AcDbDictionary
281
     1
  0
DICTIONARY
  5
1424A
102
{ACAD_REACTORS
330
14249
102
}
330
14249
100
AcDbDictionary
281
     1
  0
DICTIONARY
  5
1439F
102
{ACAD_REACTORS
330
1439E
102
}
330
1439E
100
AcDbDictionary
281
     1
  0
DICTIONARY
  5
143A5
102
{ACAD_REACTORS
330
143A4
102
}
330
143A4
100
AcDbDictionary
281
     1
  0
DICTIONARY
  5
14137
102
{ACAD_REACTORS
330
14136
102
}
330
14136
100
AcDbDictionary
281
     1
  0
DICTIONARY
  5
14141
102
{ACAD_REACTORS
330
14140
102
}
330
14140
100
AcDbDictionary
281
     1
  0
DICTIONARY
  5
149C5
330
14084
100
AcDbDictionary
280
     1
281
     1
  3
ACAD_ROUNDTRIP_2008_TABLESTYLE_CELLSTYLEMAP
360
149C6
  0
CELLSTYLEMAP
  5
149C6
102
{ACAD_REACTORS
330
149C5
102
}
330
149C5
100
AcDbCellStyleMap
 90
        3
300
CELLSTYLE
  1
TABLEFORMAT_BEGIN
 90
        5
170
     1
 91
        0
 92
    32768
 62
   257
 93
        1
300
CONTENTFORMAT
  1
CONTENTFORMAT_BEGIN
 90
        0
 91
        0
 92
        4
 93
        0
300

 40
0.0
140
1.0
 94
        5
 62
     0
340
10
144
6.0
309
CONTENTFORMAT_END
171
     1
301
MARGIN
  1
CELLMARGIN_BEGIN
 40
1.5
 40
1.5
 40
1.5
 40
1.5
 40
1.5
 40
1.5
309
CELLMARGIN_END
 94
        6
 95
        1
302
GRIDFORMAT
  1
GRIDFORMAT_BEGIN
 90
        0
 91
        1
 62
     0
 92
       -2
340
12
 93
        0
 40
0.045
309
GRIDFORMAT_END
 95
        2
302
GRIDFORMAT
  1
GRIDFORMAT_BEGIN
 90
        0
 91
        1
 62
     0
 92
       -2
340
12
 93
        0
 40
0.045
309
GRIDFORMAT_END
 95
        4
302
GRIDFORMAT
  1
GRIDFORMAT_BEGIN
 90
        0
 91
        1
 62
     0
 92
       -2
340
12
 93
        0
 40
0.045
309
GRIDFORMAT_END
 95
        8
302
GRIDFORMAT
  1
GRIDFORMAT_BEGIN
 90
        0
 91
        1
 62
     0
 92
       -2
340
12
 93
        0
 40
0.045
309
GRIDFORMAT_END
 95
       16
302
GRIDFORMAT
  1
GRIDFORMAT_BEGIN
 90
        0
 91
        1
 62
     0
 92
       -2
340
12
 93
        0
 40
0.045
309
GRIDFORMAT_END
 95
       32
302
GRIDFORMAT
  1
GRIDFORMAT_BEGIN
 90
        0
 91
        1
 62
     0
 92
       -2
340
12
 93
        0
 40
0.045
309
GRIDFORMAT_END
309
TABLEFORMAT_END
  1
CELLSTYLE_BEGIN
 90
        1
 91
        1
300
_TITLE
309
CELLSTYLE_END
300
CELLSTYLE
  1
TABLEFORMAT_BEGIN
 90
        5
170
     1
 91
        0
 92
        0
 62
   257
 93
        1
300
CONTENTFORMAT
  1
CONTENTFORMAT_BEGIN
 90
        0
 91
        0
 92
        4
 93
        0
300

 40
0.0
140
1.0
 94
        5
 62
     0
340
10
144
4.5
309
CONTENTFORMAT_END
171
     1
301
MARGIN
  1
CELLMARGIN_BEGIN
 40
1.5
 40
1.5
 40
1.5
 40
1.5
 40
1.5
 40
1.5
309
CELLMARGIN_END
 94
        6
 95
        1
302
GRIDFORMAT
  1
GRIDFORMAT_BEGIN
 90
        0
 91
        1
 62
     0
 92
       -2
340
12
 93
        0
 40
0.045
309
GRIDFORMAT_END
 95
        2
302
GRIDFORMAT
  1
GRIDFORMAT_BEGIN
 90
        0
 91
        1
 62
     0
 92
       -2
340
12
 93
        0
 40
0.045
309
GRIDFORMAT_END
 95
        4
302
GRIDFORMAT
  1
GRIDFORMAT_BEGIN
 90
        0
 91
        1
 62
     0
 92
       -2
340
12
 93
        0
 40
0.045
309
GRIDFORMAT_END
 95
        8
302
GRIDFORMAT
  1
GRIDFORMAT_BEGIN
 90
        0
 91
        1
 62
     0
 92
       -2
340
12
 93
        0
 40
0.045
309
GRIDFORMAT_END
 95
       16
302
GRIDFORMAT
  1
GRIDFORMAT_BEGIN
 90
        0
 91
        1
 62
     0
 92
       -2
340
12
 93
        0
 40
0.045
309
GRIDFORMAT_END
 95
       32
302
GRIDFORMAT
  1
GRIDFORMAT_BEGIN
 90
        0
 91
        1
 62
     0
 92
       -2
340
12
 93
        0
 40
0.045
309
GRIDFORMAT_END
309
TABLEFORMAT_END
  1
CELLSTYLE_BEGIN
 90
        2
 91
        1
300
_HEADER
309
CELLSTYLE_END
300
CELLSTYLE
  1
TABLEFORMAT_BEGIN
 90
        5
170
     1
 91
        0
 92
        0
 62
   257
 93
        1
300
CONTENTFORMAT
  1
CONTENTFORMAT_BEGIN
 90
        0
 91
        0
 92
        4
 93
        0
300

 40
0.0
140
1.0
 94
        2
 62
     0
340
10
144
4.5
309
CONTENTFORMAT_END
171
     1
301
MARGIN
  1
CELLMARGIN_BEGIN
 40
1.5
 40
1.5
 40
1.5
 40
1.5
 40
1.5
 40
1.5
309
CELLMARGIN_END
 94
        6
 95
        1
302
GRIDFORMAT
  1
GRIDFORMAT_BEGIN
 90
        0
 91
        1
 62
     0
 92
       -2
340
12
 93
        0
 40
0.045
309
GRIDFORMAT_END
 95
        2
302
GRIDFORMAT
  1
GRIDFORMAT_BEGIN
 90
        0
 91
        1
 62
     0
 92
       -2
340
12
 93
        0
 40
0.045
309
GRIDFORMAT_END
 95
        4
302
GRIDFORMAT
  1
GRIDFORMAT_BEGIN
 90
        0
 91
        1
 62
     0
 92
       -2
340
12
 93
        0
 40
0.045
309
GRIDFORMAT_END
 95
        8
302
GRIDFORMAT
  1
GRIDFORMAT_BEGIN
 90
        0
 91
        1
 62
     0
 92
       -2
340
12
 93
        0
 40
0.045
309
GRIDFORMAT_END
 95
       16
302
GRIDFORMAT
  1
GRIDFORMAT_BEGIN
 90
        0
 91
        1
 62
     0
 92
       -2
340
12
 93
        0
 40
0.045
309
GRIDFORMAT_END
 95
       32
302
GRIDFORMAT
  1
GRIDFORMAT_BEGIN
 90
        0
 91
        1
 62
     0
 92
       -2
340
12
 93
        0
 40
0.045
309
GRIDFORMAT_END
309
TABLEFORMAT_END
  1
CELLSTYLE_BEGIN
 90
        3
 91
        2
300
_DATA
309
CELLSTYLE_END
  0
ENDSEC
  0
EOF
